Видео


Сообщение

Видео Шарнирные механизмы (Н.Н. Андреев) [2011, ТММ/Механика, DVD5, RUS] (Видеолекция)

Сообщение asder » 20 июн 2012, 00:48

Шарнирные механизмы
#77Страна: Россия
Тематика: ТММ/Механика
Тип раздаваемого материала: Видеолекция
Продолжительность: 01:24:45
Год выпуска: 2011
Язык: Русский
Перевод: Не требуется
Описание: Видеозапись лекции по теме "Шарнирные механизмы", прочитанной 24 марта 2011 года в МГТУ им. Н.Э. Баумана лауреатом Премии Президента РФ, автором проекта "Математические этюды" Николаем Николаевичем Андреевым.
Запись велась с двух камер (правда, ракурсы, к сожалению, далеко не всегда удачны), получившийся мультикамерный монтаж "расцвечен" вставками с анимированными изображениями механизмов, о которых в данный момент идет рассказ. Диск снабжен анимированным меню с выбором эпизодов по тематике.
Доп. информация: Диск готовили сотоварищи (конкретно на мне - монтаж видео), в качестве подарка заинтересованным лицам и просто на память об очень интересной лекции. Видеоряд с двух любительских DVSD-камер был синхронизирован, смонтирован и снабжен анимационными вставками в Adobe Premiere CS3, транскод в MPEG2 - CinemaCraft Encoder 1.0 SP2 (SDK v2.70). Звук, записанный с внешнего микрофона, был очищен от значительной части шумов в Adobe Audition, сведен в AC3 с помощью Sonic Foundry Soft Encoder. Авторинг анимированного меню выполнен в Adobe After Effects CS3/Adobe Photoshop CS3, визуальное программирование и сведение образа DVD - Adobe Encore CS3, финальная доводка диска - DVD Rebuilder/DVD Remake Pro.
Качество: DVD5
Формат: DVD video
Видео кодек: MPEG2
Аудио кодек: AC3
Видео: 720x576 (4:3 PAL Non-Anamorphic), MPEG2, 25 fps, Interlaced, VBR 720-8000 kbps
Аудио: Russian Dolby Digital AC3, 48000 Hz, 2.0ch Stereo, 192 kbps
Sample: http://multi-up.com/492876
DVD Info
Код: Выделить всё
Title: Шарнирные механизмы DVD5
Size: 3.91 Gb ( 4 097 116,00 KBytes ) - DVD-5
Enabled regions: 1, 2, 3, 4, 5, 6, 7, 8
VTS_01 :
Play Length: 01:24:45
Video: PAL 4:3 (720x576) VBR
Audio:
Russian (Dolby AC3, 2 ch)
VTS_02 :
Play Length: 00:00:10
Video: PAL 4:3 (720x576) VBR
Audio:
English (Dolby AC3, 2 ch)
* Menus Information *
VIDEO_TS Menu
Video:
PAL 4:3 (720x576) VBR
English Language Unit :
Title Menu
VTS_01 Menu
Video:
PAL 4:3 (720x576) VBR
English Language Unit :
Root Menu
VTS_02 Menu
Video:
PAL 4:3 (720x576) VBR
English Language Unit :
Root Menu
MediaInfo
Код: Выделить всё
Общее
Полное имя: D:\DVD_RELEASES\Шарнирные механизмы DVD5\VIDEO_TS\VIDEO_TS.BUP
Формат: DVD Video
Профиль формата: Menu
Размер файла: 16,0 Кбайт
Видео
Идентификатор: 224 (0xE0)
Формат: MPEG Video
Версия формата: Version 2
Вид битрейта: Переменный
Ширина: 720 пикс.
Высота: 576 пикс.
Соотношение сторон: 4:3
Частота кадров: 25,000 кадр/сек
Стандарт вещания: PAL
Метод сжатия: С потерями
Текст
Формат: RLE
Формат/Информация: Run-length encoding
Битовая глубина: 2 бит
Общее
Полное имя: D:\DVD_RELEASES\Шарнирные механизмы DVD5\VIDEO_TS\VIDEO_TS.IFO
Формат: DVD Video
Профиль формата: Menu
Размер файла: 16,0 Кбайт
Видео
Идентификатор: 224 (0xE0)
Формат: MPEG Video
Версия формата: Version 2
Вид битрейта: Переменный
Ширина: 720 пикс.
Высота: 576 пикс.
Соотношение сторон: 4:3
Частота кадров: 25,000 кадр/сек
Стандарт вещания: PAL
Метод сжатия: С потерями
Текст
Формат: RLE
Формат/Информация: Run-length encoding
Битовая глубина: 2 бит
Общее
Полное имя: D:\DVD_RELEASES\Шарнирные механизмы DVD5\VIDEO_TS\VIDEO_TS.VOB
Формат: MPEG-PS
Размер файла: 10,0 Кбайт
Продолжительность: 40 мс.
Общий поток: 2048 Кбит/сек
Видео
Идентификатор: 224 (0xE0)
Формат: MPEG Video
Версия формата: Version 2
Профиль формата: Main@Main
Параметр BVOP формата: Нет
Параметр матрицы формата: По умолчанию
Продолжительность: 40 мс.
Вид битрейта: Постоянный
Битрейт: 9000 Кбит/сек
Ширина: 720 пикс.
Высота: 576 пикс.
Соотношение сторон: 4:3
Частота кадров: 25,000 кадр/сек
Стандарт вещания: PAL
Цветовое пространство: YUV
Подвыборка цветности: 4:2:0
Битовая глубина: 8 бит
Тип развёртки: Прогрессивная
Порядок развёртки: Верхнее поле первое
Метод сжатия: С потерями
Бит/(Пиксели*Кадры): 0.868
Размер потока: 43,9 Кбайт
Меню
Общее
Полное имя: D:\DVD_RELEASES\Шарнирные механизмы DVD5\VIDEO_TS\VTS_01_0.BUP
Формат: DVD Video
Профиль формата: Program
Размер файла: 68,0 Кбайт
Продолжительность: 1 ч. 24 м.
Общий поток: 109 бит/сек
Видео
Идентификатор: 224 (0xE0)
Формат: MPEG Video
Версия формата: Version 2
Продолжительность: 1 ч. 24 м.
Вид битрейта: Переменный
Ширина: 720 пикс.
Высота: 576 пикс.
Соотношение сторон: 4:3
Частота кадров: 25,000 кадр/сек
Стандарт вещания: PAL
Метод сжатия: С потерями
Аудио
Идентификатор: 128 (0x80)
Формат: AC-3
Формат/Информация: Audio Coding 3
Продолжительность: 1 ч. 24 м.
Каналы: 2 канала
Частота: 48,0 КГц
Метод сжатия: С потерями
Язык: Russian
Меню
Продолжительность: 1 ч. 24 м.
00:00:00.000: Chapter 1
00:01:42.120: Chapter 2
00:05:12.680: Chapter 3
00:07:14.320: Chapter 4
00:12:08.320: Chapter 5
00:14:53.760: Chapter 6
00:16:59.440: Chapter 7
00:20:10.280: Chapter 8
00:22:19.160: Chapter 9
00:25:11.560: Chapter 10
00:30:57.960: Chapter 11
00:37:22.840: Chapter 12
00:45:27.640: Chapter 13
00:49:04.920: Chapter 14
00:51:44.720: Chapter 15
00:54:04.680: Chapter 16
00:57:05.440: Chapter 17
00:58:15.040: Chapter 18
00:59:11.480: Chapter 19
01:08:46.760: Chapter 20
01:11:44.080: Chapter 21
01:17:13.320: Chapter 22
01:21:50.800: Chapter 23
01:23:28.720: Chapter 24
01:24:35.800: Chapter 25
01:24:44.840: Chapter 26
List (Audio): 0
Общее
Полное имя: D:\DVD_RELEASES\Шарнирные механизмы DVD5\VIDEO_TS\VTS_01_0.IFO
Формат: DVD Video
Профиль формата: Program
Размер файла: 68,0 Кбайт
Продолжительность: 1 ч. 24 м.
Общий поток: 109 бит/сек
Видео
Идентификатор: 224 (0xE0)
Формат: MPEG Video
Версия формата: Version 2
Продолжительность: 1 ч. 24 м.
Вид битрейта: Переменный
Ширина: 720 пикс.
Высота: 576 пикс.
Соотношение сторон: 4:3
Частота кадров: 25,000 кадр/сек
Стандарт вещания: PAL
Метод сжатия: С потерями
Аудио
Идентификатор: 128 (0x80)
Формат: AC-3
Формат/Информация: Audio Coding 3
Продолжительность: 1 ч. 24 м.
Каналы: 2 канала
Частота: 48,0 КГц
Метод сжатия: С потерями
Язык: Russian
Меню
Продолжительность: 1 ч. 24 м.
00:00:00.000: Chapter 1
00:01:42.120: Chapter 2
00:05:12.680: Chapter 3
00:07:14.320: Chapter 4
00:12:08.320: Chapter 5
00:14:53.760: Chapter 6
00:16:59.440: Chapter 7
00:20:10.280: Chapter 8
00:22:19.160: Chapter 9
00:25:11.560: Chapter 10
00:30:57.960: Chapter 11
00:37:22.840: Chapter 12
00:45:27.640: Chapter 13
00:49:04.920: Chapter 14
00:51:44.720: Chapter 15
00:54:04.680: Chapter 16
00:57:05.440: Chapter 17
00:58:15.040: Chapter 18
00:59:11.480: Chapter 19
01:08:46.760: Chapter 20
01:11:44.080: Chapter 21
01:17:13.320: Chapter 22
01:21:50.800: Chapter 23
01:23:28.720: Chapter 24
01:24:35.800: Chapter 25
01:24:44.840: Chapter 26
List (Audio): 0
Общее
Полное имя: D:\DVD_RELEASES\Шарнирные механизмы DVD5\VIDEO_TS\VTS_01_0.VOB
Формат: MPEG-PS
Размер файла: 191 Мбайт
Продолжительность: 15 с.
Общий поток: 106 Мбит/сек
Видео
Идентификатор: 224 (0xE0)
Формат: MPEG Video
Версия формата: Version 2
Профиль формата: Main@Main
Параметр BVOP формата: Да
Параметр матрицы формата: По умолчанию
Продолжительность: 15 с.
Вид битрейта: Постоянный
Битрейт: 104 Мбит/сек
Ширина: 720 пикс.
Высота: 576 пикс.
Соотношение сторон: 4:3
Частота кадров: 25,000 кадр/сек
Стандарт вещания: PAL
Цветовое пространство: YUV
Подвыборка цветности: 4:2:0
Битовая глубина: 8 бит
Метод сжатия: С потерями
Бит/(Пиксели*Кадры): 10.053
Размер потока: 187 Мбайт (98%)
Текст
Идентификатор: 189 (0xBD)-32 (0x20)
Формат: RLE
Формат/Информация: Run-length encoding
Режим смешивания: DVD-Video
Продолжительность: 12 мс.
Задержка видео: 52 мс.
Меню
Общее
Полное имя: D:\DVD_RELEASES\Шарнирные механизмы DVD5\VIDEO_TS\VTS_01_1.VOB
Формат: MPEG-PS
Размер файла: 1024 Мбайт
Продолжительность: 23 м.
Общий поток: 6146 Кбит/сек
Видео
Идентификатор: 224 (0xE0)
Формат: MPEG Video
Версия формата: Version 2
Профиль формата: Main@Main
Параметр BVOP формата: Да
Параметр матрицы формата: По умолчанию
Параметры GOP формата: M=3, N=12
Продолжительность: 23 м.
Вид битрейта: Переменный
Битрейт: 5832 Кбит/сек
Номинальный битрейт: 9000 Кбит/сек
Ширина: 720 пикс.
Высота: 576 пикс.
Соотношение сторон: 4:3
Частота кадров: 25,000 кадр/сек
Стандарт вещания: PAL
Цветовое пространство: YUV
Подвыборка цветности: 4:2:0
Битовая глубина: 8 бит
Тип развёртки: Чересстрочная
Порядок развёртки: Нижнее поле первое
Метод сжатия: С потерями
Бит/(Пиксели*Кадры): 0.563
Размер потока: 972 Мбайт (95%)
Аудио
Идентификатор: 189 (0xBD)-128 (0x80)
Формат: AC-3
Формат/Информация: Audio Coding 3
Расширение режима: CM (complete main)
Режим смешивания: DVD-Video
Продолжительность: 23 м.
Вид битрейта: Постоянный
Битрейт: 192 Кбит/сек
Каналы: 2 канала
Расположение каналов: Front: L R
Частота: 48,0 КГц
Битовая глубина: 16 бит
Метод сжатия: С потерями
Задержка видео: -80 мс.
Размер потока: 32,0 Мбайт (3%)
Меню
Общее
Полное имя: D:\DVD_RELEASES\Шарнирные механизмы DVD5\VIDEO_TS\VTS_01_2.VOB
Формат: MPEG-PS
Размер файла: 1024 Мбайт
Продолжительность: 23 м.
Общий поток: 6010 Кбит/сек
Видео
Идентификатор: 224 (0xE0)
Формат: MPEG Video
Версия формата: Version 2
Профиль формата: Main@Main
Параметр BVOP формата: Да
Параметр матрицы формата: По умолчанию
Параметры GOP формата: M=3, N=12
Продолжительность: 23 м.
Вид битрейта: Переменный
Битрейт: 5698 Кбит/сек
Номинальный битрейт: 9000 Кбит/сек
Ширина: 720 пикс.
Высота: 576 пикс.
Соотношение сторон: 4:3
Частота кадров: 25,000 кадр/сек
Стандарт вещания: PAL
Цветовое пространство: YUV
Подвыборка цветности: 4:2:0
Битовая глубина: 8 бит
Тип развёртки: Чересстрочная
Порядок развёртки: Нижнее поле первое
Метод сжатия: С потерями
Бит/(Пиксели*Кадры): 0.550
Размер потока: 971 Мбайт (95%)
Аудио
Идентификатор: 189 (0xBD)-128 (0x80)
Формат: AC-3
Формат/Информация: Audio Coding 3
Расширение режима: CM (complete main)
Режим смешивания: DVD-Video
Продолжительность: 23 м.
Вид битрейта: Постоянный
Битрейт: 192 Кбит/сек
Каналы: 2 канала
Расположение каналов: Front: L R
Частота: 48,0 КГц
Битовая глубина: 16 бит
Метод сжатия: С потерями
Задержка видео: -640 мс.
Размер потока: 32,7 Мбайт (3%)
Меню
Общее
Полное имя: D:\DVD_RELEASES\Шарнирные механизмы DVD5\VIDEO_TS\VTS_01_3.VOB
Формат: MPEG-PS
Размер файла: 1024 Мбайт
Продолжительность: 22 м.
Общий поток: 6377 Кбит/сек
Видео
Идентификатор: 224 (0xE0)
Формат: MPEG Video
Версия формата: Version 2
Профиль формата: Main@Main
Параметр BVOP формата: Да
Параметр матрицы формата: По умолчанию
Параметры GOP формата: M=3, N=12
Продолжительность: 22 м.
Вид битрейта: Переменный
Битрейт: 6058 Кбит/сек
Номинальный битрейт: 9000 Кбит/сек
Ширина: 720 пикс.
Высота: 576 пикс.
Соотношение сторон: 4:3
Частота кадров: 25,000 кадр/сек
Стандарт вещания: PAL
Цветовое пространство: YUV
Подвыборка цветности: 4:2:0
Битовая глубина: 8 бит
Тип развёртки: Чересстрочная
Порядок развёртки: Нижнее поле первое
Метод сжатия: С потерями
Бит/(Пиксели*Кадры): 0.584
Размер потока: 973 Мбайт (95%)
Аудио
Идентификатор: 189 (0xBD)-128 (0x80)
Формат: AC-3
Формат/Информация: Audio Coding 3
Расширение режима: CM (complete main)
Режим смешивания: DVD-Video
Продолжительность: 22 м.
Вид битрейта: Постоянный
Битрейт: 192 Кбит/сек
Каналы: 2 канала
Расположение каналов: Front: L R
Частота: 48,0 КГц
Битовая глубина: 16 бит
Метод сжатия: С потерями
Задержка видео: -176 мс.
Размер потока: 30,8 Мбайт (3%)
Меню
Общее
Полное имя: D:\DVD_RELEASES\Шарнирные механизмы DVD5\VIDEO_TS\VTS_01_4.VOB
Формат: MPEG-PS
Размер файла: 729 Мбайт
Продолжительность: 15 м.
Общий поток: 6718 Кбит/сек
Видео
Идентификатор: 224 (0xE0)
Формат: MPEG Video
Версия формата: Version 2
Профиль формата: Main@Main
Параметр BVOP формата: Да
Параметр матрицы формата: По умолчанию
Параметры GOP формата: M=3, N=12
Продолжительность: 15 м.
Вид битрейта: Переменный
Битрейт: 6393 Кбит/сек
Номинальный битрейт: 9000 Кбит/сек
Ширина: 720 пикс.
Высота: 576 пикс.
Соотношение сторон: 4:3
Частота кадров: 25,000 кадр/сек
Стандарт вещания: PAL
Цветовое пространство: YUV
Подвыборка цветности: 4:2:0
Битовая глубина: 8 бит
Тип развёртки: Чересстрочная
Порядок развёртки: Нижнее поле первое
Метод сжатия: С потерями
Бит/(Пиксели*Кадры): 0.617
Размер потока: 694 Мбайт (95%)
Аудио
Идентификатор: 189 (0xBD)-128 (0x80)
Формат: AC-3
Формат/Информация: Audio Coding 3
Расширение режима: CM (complete main)
Режим смешивания: DVD-Video
Продолжительность: 15 м.
Вид битрейта: Постоянный
Битрейт: 192 Кбит/сек
Каналы: 2 канала
Расположение каналов: Front: L R
Частота: 48,0 КГц
Битовая глубина: 16 бит
Метод сжатия: С потерями
Задержка видео: -448 мс.
Размер потока: 20,8 Мбайт (3%)
Меню
Общее
Полное имя: D:\DVD_RELEASES\Шарнирные механизмы DVD5\VIDEO_TS\VTS_02_0.BUP
Формат: DVD Video
Профиль формата: Program
Размер файла: 18,0 Кбайт
Продолжительность: 10 с.
Общий поток: 14,2 Кбит/сек
Видео
Идентификатор: 224 (0xE0)
Формат: MPEG Video
Версия формата: Version 2
Продолжительность: 10 с.
Вид битрейта: Переменный
Ширина: 720 пикс.
Высота: 576 пикс.
Соотношение сторон: 4:3
Частота кадров: 25,000 кадр/сек
Стандарт вещания: PAL
Метод сжатия: С потерями
Аудио
Идентификатор: 128 (0x80)
Формат: AC-3
Формат/Информация: Audio Coding 3
Продолжительность: 10 с.
Каналы: 2 канала
Частота: 48,0 КГц
Метод сжатия: С потерями
Язык: English
Меню
Продолжительность: 10 с.
00:00:00.000: Chapter 1
00:00:10.000: Chapter 2
List (Audio): 0
Общее
Полное имя: D:\DVD_RELEASES\Шарнирные механизмы DVD5\VIDEO_TS\VTS_02_0.IFO
Формат: DVD Video
Профиль формата: Program
Размер файла: 18,0 Кбайт
Продолжительность: 10 с.
Общий поток: 14,2 Кбит/сек
Видео
Идентификатор: 224 (0xE0)
Формат: MPEG Video
Версия формата: Version 2
Продолжительность: 10 с.
Вид битрейта: Переменный
Ширина: 720 пикс.
Высота: 576 пикс.
Соотношение сторон: 4:3
Частота кадров: 25,000 кадр/сек
Стандарт вещания: PAL
Метод сжатия: С потерями
Аудио
Идентификатор: 128 (0x80)
Формат: AC-3
Формат/Информация: Audio Coding 3
Продолжительность: 10 с.
Каналы: 2 канала
Частота: 48,0 КГц
Метод сжатия: С потерями
Язык: English
Меню
Продолжительность: 10 с.
00:00:00.000: Chapter 1
00:00:10.000: Chapter 2
List (Audio): 0
Общее
Полное имя: D:\DVD_RELEASES\Шарнирные механизмы DVD5\VIDEO_TS\VTS_02_0.VOB
Формат: MPEG-PS
Размер файла: 10,0 Кбайт
Продолжительность: 40 мс.
Общий поток: 2048 Кбит/сек
Видео
Идентификатор: 224 (0xE0)
Формат: MPEG Video
Версия формата: Version 2
Профиль формата: Main@Main
Параметр BVOP формата: Нет
Параметр матрицы формата: По умолчанию
Продолжительность: 40 мс.
Вид битрейта: Постоянный
Битрейт: 9000 Кбит/сек
Ширина: 720 пикс.
Высота: 576 пикс.
Соотношение сторон: 4:3
Частота кадров: 25,000 кадр/сек
Стандарт вещания: PAL
Цветовое пространство: YUV
Подвыборка цветности: 4:2:0
Битовая глубина: 8 бит
Тип развёртки: Прогрессивная
Порядок развёртки: Верхнее поле первое
Метод сжатия: С потерями
Бит/(Пиксели*Кадры): 0.868
Размер потока: 43,9 Кбайт
Меню
Общее
Полное имя: D:\DVD_RELEASES\Шарнирные механизмы DVD5\VIDEO_TS\VTS_02_1.VOB
Формат: MPEG-PS
Размер файла: 8,74 Мбайт
Продолжительность: 9 с. 984 мс.
Общий поток: 7345 Кбит/сек
Видео
Идентификатор: 224 (0xE0)
Формат: MPEG Video
Версия формата: Version 2
Профиль формата: Main@Main
Параметр BVOP формата: Да
Параметр матрицы формата: По умолчанию
Продолжительность: 9 с. 920 мс.
Вид битрейта: Переменный
Битрейт: 7007 Кбит/сек
Номинальный битрейт: 9000 Кбит/сек
Ширина: 720 пикс.
Высота: 576 пикс.
Соотношение сторон: 4:3
Частота кадров: 25,000 кадр/сек
Стандарт вещания: PAL
Цветовое пространство: YUV
Подвыборка цветности: 4:2:0
Битовая глубина: 8 бит
Тип развёртки: Чересстрочная
Порядок развёртки: Нижнее поле первое
Метод сжатия: С потерями
Бит/(Пиксели*Кадры): 0.676
Размер потока: 8,29 Мбайт (95%)
Аудио
Идентификатор: 189 (0xBD)-128 (0x80)
Формат: AC-3
Формат/Информация: Audio Coding 3
Расширение режима: CM (complete main)
Режим смешивания: DVD-Video
Продолжительность: 9 с. 984 мс.
Вид битрейта: Постоянный
Битрейт: 192 Кбит/сек
Каналы: 2 канала
Расположение каналов: Front: L R
Частота: 48,0 КГц
Битовая глубина: 16 бит
Метод сжатия: С потерями
Задержка видео: -80 мс.
Размер потока: 234 Кбайт (3%)
Меню
Скриншоты меню
Скриншоты

Постеры

Соцсети

 

Статистика

Автор: asder
Добавлен: 20 июн 2012, 00:48
Размер: 3.91 ГБ
Размер: 4 195 446 784 байт
Сидеров: 0
Личеров: 0
Скачали: 0
Здоровье: 0%
Скорость скачивания: 0 байт/сек
Скорость раздачи: 0 байт/сек
Последний сидер: Нет
Последний личер: Нет
Приватный: Нет (DHT включён)
Школьникам, студентам и педагогам Скачать торрент
Скачать торрент
[ Размер 20.79 КБ / Просмотров 0 ]

Поделиться



  • Похожие торренты
    Ответы
    Просмотры
    Последнее сообщение

Вернуться в Школьникам, студентам и педагогам