Видео


Сообщение

Видео Лекции летней школы «Современная математика», г. Дубна [2001-2010, Математика, CAMRip, RUS]

Сообщение asder » 20 июн 2012, 01:41

Лекции летней школы «Современная математика», г. Дубна
Страна: Россия
Тематика: Математика
Тип раздаваемого материала: Видеозаписи лекций
Продолжительность: 74 минуты каждая лекция
Год выпуска: 2001-2010
Язык: Русский
Перевод: Не требуется
Описание: Лекции летней школы "Современная математика"
Начиная с 2001 года Российская Академия наук (отделение математики), Математический институт имени В.А.Стеклова, Департамент образования города Москвы и Московский центр непрерывного математического образования проводят уникальную по составу преподавателей и участников школу по математике.
В течение двух недель около ста участников школы принимают участие в 70-80 лекциях или семинарах. Каждое такое занятие длится дольше, чем школьный урок, но короче, чем институтская «пара»: ровно 74 минуты.
Среди преподавателей школы — как ведущие математики страны В.И.Арнольд, Д.В.Аносов, А.А.Болибрух, В.А.Васильев, C.П.Новиков, проф. А.В.Архангельский, А.А.Кириллов, И.А.Панин, А.А.Разборов, А.Б.Сосинский, В.М.Тихомиров, В.А.Успенский, А.Г.Хованский, так и вчерашние и сегодняшние студенты, которые сравнительно недавно начали свой путь в науке (например, на школе-2003 — А.Браверман, А.Буфетов, В.Клепцын, А.Кузнецов, в 2009-м — Ю.Кудряшов, Ю.Притыкин, М.Раскин).
Доп. информация: Для просмотра файлов могут понадобиться RealPlayer версии 9 или выше и Windows Media Player версии 10 или выше.
Все файлы (числом 134) скачаны в разное время с сайта mathnet.ru и представлены в том качестве и формате, как были выложены на сайте.
Качество : CAMRip
Скриншоты
Список лекций
Лекции летней школы «Современная математика», г. Дубна
1. Три взгляда на векторные поля. Лекция первая
Д. В. Аносов
15 июля 2001 г.
2. Три взгляда на векторные поля. Лекция вторая
Д. В. Аносов
16 июля 2001 г.
3. Уравнения Максвелла, внешние дифференциальные формы и расслоения. Лекция
первая
А. А. Болибрух
16 июля 2001 г.
4. Астроидальная геометрия и топология. Лекция первая
В. И. Арнольд
17 июля 2001 г.
5. Астроидальная геометрия и топология. Лекция вторая
В. И. Арнольд
18 июля 2001 г.
6. Уравнения Максвелла, внешние дифференциальные формы и расслоения. Лекция
вторая
А. А. Болибрух
19 июля 2001 г.
7. Выпуклый анализ
В. М. Тихомиров
19 июля 2001 г.
8. О числе нулей решений дифференциальных уравнений
А. Г. Хованский
21 июля 2001 г.
9. Теорема Гёделя
А. Б. Сосинский
22 июля 2001 г.
10. Элементарные топологические задачи
В. А. Васильев
24 июля 2001 г.
11. Удивительный комплексный мир. Лекция первая
Д. В. Аносов
16 июля 2002 г.
12. Удивительный комплексный мир. Лекция вторая
Д. В. Аносов
17 июля 2002 г.
13. Удивительный комплексный мир. Лекция третья
Д. В. Аносов
18 июля 2002 г.
14. Задача факторизации матриц и ее применения
А. А. Болибрух
22 июля 2002 г.
15. Топология алгебры и гидродинамика арифметики. Лекция первая
В. И. Арнольд
20 июля 2003 г.
16. Топология алгебры и гидродинамика арифметики. Лекция вторая
В. И. Арнольд
21 июля 2003 г.
17. Открытые проблемы элементарной геометрии
С. В. Маркелов
22 июля 2003 г. 17:00
18. Сингулярные мыльные плёнки
А. Б. Сосинский
24 июля 2003 г.
19. Основные математические понятия криптографии. Лекция первая
И. В. Ященко
27 июля 2003 г.
20. Основные математические понятия криптографии. Лекция вторая
И. В. Ященко
29 июля 2003 г.
21. Геометрия корректирующих кодов
М. А. Цфасман
29 июля 2003 г.
22. А. Н. Колмогоров — геометр
В. М. Тихомиров
29 июля 2003 г.
23. Метрические пространства
И. В. Ященко
21 июля 2005 г.
24. Четыре алгоритмических лица случайности
В. А. Успенский
23 июля 2005 г.
25. Теорема Гёделя о неполноте и четыре дороги, ведущие к ней. Лекция первая
В. А. Успенский
20 июля 2007 г. 09:40
26. На сколько частей n
прямых делят плоскость?
В. И. Арнольд
20 июля 2007 г. 11:30
27. Порядок Шарковского
Д. В. Аносов
20 июля 2007 г. 17:20
28. Теорема Гёделя о неполноте и четыре дороги, ведущие к ней. Лекция вторая
В. А. Успенский
21 июля 2007 г. 09:30
29. Квадратичные иррациональные числа, их цепные дроби и их палиндромы. Лекция
первая
В. И. Арнольд
21 июля 2007 г. 11:15
30. Теорема Минковского о выпуклых многогранниках и ее приложения
Н. П. Долбилин
21 июля 2007 г. 17:40
31. Квадратичные иррациональные числа, их цепные дроби и их палиндромы. Лекция
вторая
В. И. Арнольд
22 июля 2007 г. 09:40
32. Намагничивание решетки: фазовые переходы и уравнение Шрама–Левнера. Занятие
первое
В. А. Клепцын
22 июля 2007 г. 11:30
33. Теорема Гёделя о неполноте и четыре дороги, ведущие к ней. Лекция третья
В. А. Успенский
22 июля 2007 г. 11:30
34. Новый дискретный вариант комплексного анализа
С. П. Новиков
22 июля 2007 г. 15:30
35. Квадратичные иррациональные числа, их цепные дроби и их палиндромы. Лекция
третья
В. И. Арнольд
23 июля 2007 г. 15:30
36. Геометрия, анализ и арифметика фракталов
А. А. Кириллов
23 июля 2007 г. 17:10
37. Как может быть устроена трёхмерная Вселенная?
Г. Б. Шабат
24 июля 2007 г. 09:20
38. Геометрия, анализ и арифметика фракталов. Занятие первое
А. А. Кириллов
24 июля 2007 г. 09:45
39. Арифметические прогрессии простых чисел
М. Балазар
24 июля 2007 г. 11:30
40. Намагничивание решетки: фазовые переходы и уравнение Шрама–Левнера. Занятие
второе
В. А. Клепцын
24 июля 2007 г. 17:20
41. Геометрия, анализ и арифметика фракталов. Занятие второе
А. А. Кириллов
25 июля 2007 г. 09:40
42. Намагничивание решетки: фазовые переходы и уравнение Шрама–Левнера. Занятие
третье
В. А. Клепцын
25 июля 2007 г. 11:30
43. Квадратичные иррациональные числа, их цепные дроби и их палиндромы. Лекция
четвертая
В. И. Арнольд
25 июля 2007 г. 15:30
44. Двумерные поверхности и конфигурационные пространства шарнирных механизмов.
Лекция первая
А. Б. Сосинский
25 июля 2007 г. 17:20
45. Задачи о покрытии и размерность Вапника–Червоненкиса в комбинаторной
геометрии и геометрии чисел
А. М. Райгородский
26 июля 2007 г. 11:30
46. Геометрия, анализ и арифметика фракталов. Занятие третье
А. А. Кириллов
27 июля 2007 г. 13:00
47. Криптография и математика
И. В. Ященко
27 июля 2007 г. 15:50
48. Геометрия, анализ и арифметика фракталов. Занятие четвертое
А. А. Кириллов
27 июля 2007 г. 17:15
49. Намагничивание решетки: фазовые переходы и уравнение Шрама–Левнера. Занятие
четвертое
В. А. Клепцын
28 июля 2007 г. 09:30
50. Физическое моделирование, “обратная связь” и ее практическое применение
А. Р. Зильберман
28 июля 2007 г. 13:00
51. Обратные задачи арифметической комбинаторики. Лекция первая
А. А. Разборов
28 июля 2007 г. 15:45
52. Квадратичные иррациональные числа, их цепные дроби и их палиндромы. Лекция
пятая
В. И. Арнольд
28 июля 2007 г. 17:10
53. Обратные задачи арифметической комбинаторики. Лекция вторая
А. А. Разборов
29 июля 2007 г. 09:30
54. Двумерные поверхности и конфигурационные пространства шарнирных механизмов.
Лекция вторая
А. Б. Сосинский
29 июля 2007 г. 17:10
55. Цепные дроби квадратных корней из целых чисел. Лекция первая
В. И. Арнольд
19 июля 2008 г. 09:30
56. Вычислимые действительные числа и их нумерации
В. А. Успенский
19 июля 2008 г. 17:00
57. Элементы теории вероятностей: от аксиом до прогулок пьяницы
Д. В. Аносов
20 июля 2008 г. 11:15
58. Теневое исчисление. Лекция первая
С. К. Ландо
20 июля 2008 г. 12:45
59. О шарнирных механизмах, раскрашенных графах и вывернутых наизнанку
многогранниках. Лекция первая
Г. Ю. Панина
20 июля 2008 г. 15:30
60. Компакты и компактность
И. В. Ященко
21 июля 2008 г. 09:30
61. Цепные дроби квадратных корней из целых чисел. Лекция вторая
В. И. Арнольд
21 июля 2008 г. 11:15
62. Теневое исчисление. Лекция вторая
С. К. Ландо
21 июля 2008 г. 12:45
63. Узлы и косы. Первое занятие (лекция)
А. Б. Сосинский
22 июля 2008 г. 09:30
64. Цепные дроби квадратных корней из целых чисел. Лекция третья
В. И. Арнольд
22 июля 2008 г. 15:30
65. О шарнирных механизмах, раскрашенных графах и вывернутых наизнанку
многогранниках. Лекция вторая
Г. Ю. Панина
23 июля 2008 г. 11:15
66. Цепные дроби квадратных корней из целых чисел. Лекция четвертая
В. И. Арнольд
24 июля 2008 г. 11:15
67. Узлы и косы. Второе занятие (семинар)
А. Б. Сосинский
24 июля 2008 г. 12:45
68. От статистической физики к математическим задачам. Лекция первая
Д. А. Звонкин
24 июля 2008 г. 17:00
69. Соприкасающиеся кривые. Лекция первая
Э. Жис
25 июля 2008 г. 09:30
70. От статистической физики к математическим задачам. Лекция вторая
Д. А. Звонкин
25 июля 2008 г. 11:15
71. A что будет, если n
очень большое? Лекция первая
А. М. Вершик
25 июля 2008 г. 15:30
72. О шарнирных механизмах, раскрашенных графах и вывернутых наизнанку
многогранниках. Лекция третья
Г. Ю. Панина
25 июля 2008 г. 17:00
73. Дискретный комплексный анализ и плоскость Лобачевского
С. П. Новиков
26 июля 2008 г. 09:30
74. О шарнирных механизмах, раскрашенных графах и вывернутых наизнанку
многогранниках. Лекция четвертая
Г. Ю. Панина
26 июля 2008 г. 11:15
75. Соприкасающиеся кривые. Лекция вторая
Э. Жис
26 июля 2008 г. 15:30
76. Математика и законы природы
В. М. Тихомиров
27 июля 2008 г. 09:30
77. От статистической физики к математическим задачам. Лекция третья
Д. А. Звонкин
27 июля 2008 г. 11:15
78. Узлы и косы. Третье занятие (семинар)
А. Б. Сосинский
27 июля 2008 г. 12:45
79. A что будет, если n
очень большое? Лекция вторая
А. М. Вершик
27 июля 2008 г. 17:00
80. От статистической физики к математическим задачам. Лекция четвертая
Д. А. Звонкин
28 июля 2008 г. 09:30
81. Цепные дроби квадратных корней из целых чисел. Лекция пятая
В. И. Арнольд
28 июля 2008 г. 11:15
82. Соприкасающиеся кривые. Лекция третья
Э. Жис
28 июля 2008 г. 12:45
83. Теорема А. Д. Александрова о развертках выпуклых многогранников
Н. П. Долбилин
28 июля 2008 г. 15:30
84. A что будет, если n
очень большое? Лекция третья
А. М. Вершик
28 июля 2008 г. 17:00
85. Начальные понятия дескриптивной теории алгоритмов
В. А. Успенский
20 июля 2009 г. 15:30
86. Графы и квантовая механика: симплектические идеи
С. П. Новиков
23 июля 2009 г. 11:15
87. Математика и естествознание. II
В. М. Тихомиров
24 июля 2009 г. 09:30
88. Проективные плоскости и алгебраическая геометрия. I
Д. О. Орлов
24 июля 2009 г. 17:00
89. Проективные плоскости и алгебраическая геометрия. II
Д. О. Орлов
26 июля 2009 г. 11:15
90. Исчислительная геометрия на проективной плоскости. Лекция 1
А. Г. Кузнецов
26 июля 2009 г. 17:00
91. Проективные плоскости и алгебраическая геометрия. III
Д. О. Орлов
27 июля 2009 г. 11:15
92. Исчислительная геометрия на проективной плоскости. Лекция 2
А. Г. Кузнецов
27 июля 2009 г. 17:00
93. Проективные плоскости и алгебраическая геометрия. IV
Д. О. Орлов
28 июля 2009 г. 15:30
94. Теорема Гёделя — синтаксическая версия
В. А. Успенский
19 июля 2010 г. 09:30
95. От Пуанкаре до Перельмана. Лекция 1
В. В. Успенский
19 июля 2010 г. 11:15
96. Дискретное преобразование Фурье. Лекция 1
А. В. Устинов
19 июля 2010 г. 11:15
97. Диаграммы Юнга, ортогональные полиномы и случайные матрицы. Лекция 1
А. И. Буфетов, Н. Е. Козин
19 июля 2010 г. 15:30
98. Целые точки в выпуклых многогранниках. Лекция 1
Г. Ю. Панина
19 июля 2010 г. 17:00
99. Проволочные узлы (пример экспериментальной математики)
А. Б. Сосинский
20 июля 2010 г. 09:30
100. Диаграммы Юнга, ортогональные полиномы и случайные матрицы. Лекция 2
А. И. Буфетов, Н. Е. Козин
20 июля 2010 г. 11:15
101. Алгебраическая геометрия и нелинейные уравнения матфизики
И. М. Кричевер
20 июля 2010 г. 15:30
102. Экстремальные задачи комбинаторики и теории геометрических графов. Лекция 1
А. М. Райгородский
20 июля 2010 г. 17:00
103. Решётки и упаковки шаров в многомерных пространствах. Лекция 1
В. А. Клепцын
20 июля 2010 г. 17:00
104. Complex dynamics: the Mandelbrot set and Newton's Method. On useless and
useful Mathematics
Dierk Schleicher
21 июля 2010 г. 09:30
105. От Пуанкаре до Перельмана. Лекция 2
В. В. Успенский
21 июля 2010 г. 17:00
106. Целые точки в выпуклых многогранниках. Лекция 2
Г. Ю. Панина
22 июля 2010 г. 15:30
107. Целые точки в выпуклых многогранниках. Лекция 3
Г. Ю. Панина
23 июля 2010 г. 09:30
108. Экстремальные задачи комбинаторики и теории геометрических графов. Лекция 2
А. М. Райгородский
23 июля 2010 г. 11:15
109. Доказательства невозможности в математической логике и теории алгоритмов
А. Л. Семёнов
23 июля 2010 г. 12:45
110. Алгебраическая сложность. Лекция 1
А. А. Разборов
23 июля 2010 г. 15:30
111. От Пуанкаре до Перельмана. Лекция 3
В. В. Успенский
23 июля 2010 г. 17:00
112. Алгебраическая сложность. Лекция 2
А. А. Разборов
24 июля 2010 г. 09:30
113. Ветер на клетчатой бумаге
И. В. Ященко
24 июля 2010 г. 12:45
114. Теория КАМ для начинающих. Лекция 1
Ю. С. Ильяшенко
24 июля 2010 г. 15:30
115. Квантовая механика. Лекция 1
Ю. М. Бурман
24 июля 2010 г. 17:00
116. Экстремальные задачи комбинаторики и теории геометрических графов. Лекция 3
А. М. Райгородский
25 июля 2010 г. 09:30
117. Прямые на кубической поверхности
А. Г. Кузнецов
25 июля 2010 г. 12:45
118. Квантовая механика. Лекция 2
Ю. М. Бурман
25 июля 2010 г. 15:30
119. АВС-гипотеза и ее следствия
Д. О. Орлов
25 июля 2010 г. 17:00
120. Колмогоров и Арнольд
В. М. Тихомиров
26 июля 2010 г. 11:15
121. Гидродинамика и турбулентность
С. Б. Куксин
26 июля 2010 г. 12:45
122. Квантовая механика. Лекция 3
Ю. М. Бурман
26 июля 2010 г. 15:30
И отдельные лекции прежних лет:
В. И. Арнольд
Тригонометрические многочлены Морса и шестнадцатая проблема Гильберта.
Статистика топологии и алгебры.
===
Ю. С. Ильяшенко
Биллиарды на плоскости и в многомерном пространстве, лекции 1 и 2.
===
А. А. Кириллов
Анализ и геометрия фракталов, лекции 1, 2.
===
Ю. В. Матиясевич
Алгебра - это геометрия для лентяев, лекции 1, 1.
===
А. А. Разборов
Квантовые вычисления, лекции 1, 2.
===
В. М. Тихомиров
Теория экстремумов
===
В. А. Успенский
Нестандартные модели - хорошо это или плохо?
Отчет Mediainfo о файлах
Общее
Полное имя : Лекции летней школы «Современная Математика», г. Дубна\Dierk Schleicher\Complex dynamics - the Mandelbrot set and Newton's Method. On useless and useful Mathematics\2048.wmv
Формат : Windows Media
Размер файла : 491 Мбайт
Продолжительность : 1 ч. 10 м.
Режим общего битрейта : Переменный
Общий поток : 978 Кбит/сек
Максимальный общий битрейт : 1220 Кбит/сек
Дата кодирования : UTC 2010-10-05 01:11:58.988
Видео
Идентификатор : 2
Формат : VC-1
Профиль формата : MP@ML
Идентификатор кодека : WMV3
Идентификатор кодека/Информация : Windows Media Video 9
Идентификатор кодека/Подсказка : WMV3
Описание кодека : Windows Media Video 9
Продолжительность : 1 ч. 10 м.
Вид битрейта : Переменный
Битрейт : 872 Кбит/сек
Ширина : 720 пикс.
Высота : 576 пикс.
Соотношение сторон : 5:4
Частота кадров : 25,000 кадр/сек
Стандарт вещания : PAL
Битовая глубина : 8 бит
Тип развёртки : Прогрессивная
Метод сжатия : С потерями
Бит/(Пиксели*Кадры) : 0.084
Размер потока : 438 Мбайт (89%)
NumberOfFrames : 105360
Аудио
Идентификатор : 1
Формат : WMA
Версия формата : Version 2
Идентификатор кодека : 161
Идентификатор кодека/Информация : Windows Media Audio
Описание кодека : Windows Media Audio 9.2 - 96 kbps, 48 kHz, stereo 2-pass VBR
Продолжительность : 1 ч. 10 м.
Вид битрейта : Переменный
Битрейт : 95,9 Кбит/сек
Канал(ы) : 2 канала(ов)
Частота : 48,0 КГц
Битовая глубина : 16 бит
Размер потока : 48,2 Мбайт (10%)
Общее
Полное имя : Лекции летней школы «Современная Математика», г. Дубна\Аносов Д. В\Порядок Шарковского\v132.rmvb
Формат : RealMedia
Размер файла : 206 Мбайт
Продолжительность : 1 ч. 11 м.
Общий поток : 400 Кбит/сек
Видео
Идентификатор : 1
Формат : RealVideo 4
Идентификатор кодека : RV40
Идентификатор кодека/Информация : Based on AVC (H.264), Real Player 9
Продолжительность : 1 ч. 11 м.
Битрейт : 334 Кбит/сек
Ширина : 384 пикс.
Высота : 288 пикс.
Соотношение сторон : 4:3
Частота кадров : 25,000 кадр/сек
Бит/(Пиксели*Кадры) : 0.121
Размер потока : 170 Мбайт (82%)
Аудио
Идентификатор : 0
Формат : Cooker
Идентификатор кодека : cook
Идентификатор кодека/Информация : Based on G.722.1, Real Player 6
Продолжительность : 1 ч. 11 м.
Битрейт : 64,1 Кбит/сек
Канал(ы) : 1 канал
Частота : 44,1 КГц
Битовая глубина : 16 бит
Размер потока : 32,6 Мбайт (16%)
Общее
Полное имя : Лекции летней школы «Современная Математика», г. Дубна\Аносов Д. В\Три взгляда на векторные поля. (1)\v98.wmv
Формат : Windows Media
Размер файла : 239 Мбайт
Продолжительность : 1 ч. 17 м.
Общий поток : 432 Кбит/сек
Максимальный общий битрейт : 430 Кбит/сек
Исполнитель : Encoded by INT, Mocow, Andrew Eremin & Vlada Kulik
Видео
Идентификатор : 2
Формат : MPEG-4 Visual
Идентификатор кодека : MP43
Идентификатор кодека/Информация : Microsoft MPEG-4 v3 (pre-standard)
Идентификатор кодека/Подсказка : Microsoft
Описание кодека : Windows Media MPEG-4 Video V3 -
Продолжительность : 1 ч. 17 м.
Битрейт : 386 Кбит/сек
Ширина : 640 пикс.
Высота : 480 пикс.
Соотношение сторон : 4:3
Частота кадров : 15,000 кадр/сек
Битовая глубина : 8 бит
Метод сжатия : С потерями
Бит/(Пиксели*Кадры) : 0.084
Размер потока : 214 Мбайт (89%)
Аудио
Идентификатор : 1
Формат : WMA
Версия формата : Version 2
Идентификатор кодека : 161
Идентификатор кодека/Информация : Windows Media Audio
Описание кодека : Windows Media Audio V7 - 20 kbps, 32 kHz, mono
Продолжительность : 1 ч. 17 м.
Битрейт : 20,0 Кбит/сек
Канал(ы) : 1 канал
Частота : 32,0 КГц
Битовая глубина : 16 бит
Размер потока : 11,1 Мбайт (5%)
Общее
Полное имя : Лекции летней школы «Современная Математика», г. Дубна\Аносов Д. В\Три взгляда на векторные поля. (2)\v99.wmv
Формат : Windows Media
Размер файла : 256 Мбайт
Продолжительность : 1 ч. 22 м.
Общий поток : 432 Кбит/сек
Максимальный общий битрейт : 430 Кбит/сек
Исполнитель : Encoded by INT, Mocow, Andrew Eremin & Vlada Kulik
Видео
Идентификатор : 2
Формат : MPEG-4 Visual
Идентификатор кодека : MP43
Идентификатор кодека/Информация : Microsoft MPEG-4 v3 (pre-standard)
Идентификатор кодека/Подсказка : Microsoft
Описание кодека : Windows Media MPEG-4 Video V3 -
Продолжительность : 1 ч. 22 м.
Битрейт : 386 Кбит/сек
Ширина : 640 пикс.
Высота : 480 пикс.
Соотношение сторон : 4:3
Частота кадров : 15,000 кадр/сек
Битовая глубина : 8 бит
Метод сжатия : С потерями
Бит/(Пиксели*Кадры) : 0.084
Размер потока : 229 Мбайт (89%)
Аудио
Идентификатор : 1
Формат : WMA
Версия формата : Version 2
Идентификатор кодека : 161
Идентификатор кодека/Информация : Windows Media Audio
Описание кодека : Windows Media Audio V7 - 20 kbps, 32 kHz, mono
Продолжительность : 1 ч. 22 м.
Битрейт : 20,0 Кбит/сек
Канал(ы) : 1 канал
Частота : 32,0 КГц
Битовая глубина : 16 бит
Размер потока : 11,8 Мбайт (5%)
Общее
Полное имя : Лекции летней школы «Современная Математика», г. Дубна\Аносов Д. В\Удивительный комплексный мир. (1)\v108.rmvb
Формат : RealMedia
Размер файла : 205 Мбайт
Продолжительность : 1 ч. 10 м.
Общий поток : 400 Кбит/сек
Видео
Идентификатор : 1
Формат : RealVideo 4
Идентификатор кодека : RV40
Идентификатор кодека/Информация : Based on AVC (H.264), Real Player 9
Продолжительность : 1 ч. 10 м.
Битрейт : 334 Кбит/сек
Ширина : 384 пикс.
Высота : 288 пикс.
Соотношение сторон : 4:3
Частота кадров : 25,000 кадр/сек
Бит/(Пиксели*Кадры) : 0.121
Размер потока : 169 Мбайт (82%)
Аудио
Идентификатор : 0
Формат : Cooker
Идентификатор кодека : cook
Идентификатор кодека/Информация : Based on G.722.1, Real Player 6
Продолжительность : 1 ч. 10 м.
Битрейт : 64,1 Кбит/сек
Канал(ы) : 1 канал
Частота : 44,1 КГц
Битовая глубина : 16 бит
Размер потока : 32,4 Мбайт (16%)
Общее
Полное имя : Лекции летней школы «Современная Математика», г. Дубна\Аносов Д. В\Удивительный комплексный мир. (2)\v109.rmvb
Формат : RealMedia
Размер файла : 227 Мбайт
Продолжительность : 1 ч. 18 м.
Общий поток : 400 Кбит/сек
Видео
Идентификатор : 1
Формат : RealVideo 4
Идентификатор кодека : RV40
Идентификатор кодека/Информация : Based on AVC (H.264), Real Player 9
Продолжительность : 1 ч. 18 м.
Битрейт : 334 Кбит/сек
Ширина : 384 пикс.
Высота : 288 пикс.
Соотношение сторон : 4:3
Частота кадров : 25,000 кадр/сек
Бит/(Пиксели*Кадры) : 0.121
Размер потока : 187 Мбайт (82%)
Аудио
Идентификатор : 0
Формат : Cooker
Идентификатор кодека : cook
Идентификатор кодека/Информация : Based on G.722.1, Real Player 6
Продолжительность : 1 ч. 18 м.
Битрейт : 64,1 Кбит/сек
Канал(ы) : 1 канал
Частота : 44,1 КГц
Битовая глубина : 16 бит
Размер потока : 35,9 Мбайт (16%)
Общее
Полное имя : Лекции летней школы «Современная Математика», г. Дубна\Аносов Д. В\Удивительный комплексный мир. (3)\v110.rmvb
Формат : RealMedia
Размер файла : 240 Мбайт
Продолжительность : 1 ч. 22 м.
Общий поток : 400 Кбит/сек
Видео
Идентификатор : 1
Формат : RealVideo 4
Идентификатор кодека : RV40
Идентификатор кодека/Информация : Based on AVC (H.264), Real Player 9
Продолжительность : 1 ч. 22 м.
Битрейт : 334 Кбит/сек
Ширина : 384 пикс.
Высота : 288 пикс.
Соотношение сторон : 4:3
Частота кадров : 25,000 кадр/сек
Бит/(Пиксели*Кадры) : 0.121
Размер потока : 198 Мбайт (82%)
Аудио
Идентификатор : 0
Формат : Cooker
Идентификатор кодека : cook
Идентификатор кодека/Информация : Based on G.722.1, Real Player 6
Продолжительность : 1 ч. 22 м.
Битрейт : 64,1 Кбит/сек
Канал(ы) : 1 канал
Частота : 44,1 КГц
Битовая глубина : 16 бит
Размер потока : 38,0 Мбайт (16%)
Общее
Полное имя : Лекции летней школы «Современная Математика», г. Дубна\Аносов Д. В\Элементы теории вероятностей. От аксиом до прогулок пьяницы\v212.rmvb
Формат : RealMedia
Размер файла : 232 Мбайт
Продолжительность : 1 ч. 20 м.
Общий поток : 400 Кбит/сек
Видео
Идентификатор : 1
Формат : RealVideo 4
Идентификатор кодека : RV40
Идентификатор кодека/Информация : Based on AVC (H.264), Real Player 9
Продолжительность : 1 ч. 20 м.
Битрейт : 334 Кбит/сек
Ширина : 384 пикс.
Высота : 288 пикс.
Соотношение сторон : 4:3
Частота кадров : 25,000 кадр/сек
Бит/(Пиксели*Кадры) : 0.121
Размер потока : 191 Мбайт (82%)
Аудио
Идентификатор : 0
Формат : Cooker
Идентификатор кодека : cook
Идентификатор кодека/Информация : Based on G.722.1, Real Player 6
Продолжительность : 1 ч. 20 м.
Битрейт : 64,1 Кбит/сек
Канал(ы) : 1 канал
Частота : 44,1 КГц
Битовая глубина : 16 бит
Размер потока : 36,7 Мбайт (16%)
Общее
Полное имя : Лекции летней школы «Современная Математика», г. Дубна\Арнольд В. И\Астроидальная геометрия и топология. Лекция вторая\v101.wmv
Формат : Windows Media
Размер файла : 283 Мбайт
Продолжительность : 1 ч. 31 м.
Общий поток : 432 Кбит/сек
Максимальный общий битрейт : 430 Кбит/сек
Исполнитель : Encoded by INT, Mocow, Andrew E
Видео
Идентификатор : 2
Формат : MPEG-4 Visual
Идентификатор кодека : MP43
Идентификатор кодека/Информация : Microsoft MPEG-4 v3 (pre-standard)
Идентификатор кодека/Подсказка : Microsoft
Описание кодека : Windows Media MPEG-4 Video V3 -
Продолжительность : 1 ч. 31 м.
Битрейт : 386 Кбит/сек
Ширина : 640 пикс.
Высота : 480 пикс.
Соотношение сторон : 4:3
Частота кадров : 15,000 кадр/сек
Битовая глубина : 8 бит
Метод сжатия : С потерями
Бит/(Пиксели*Кадры) : 0.084
Размер потока : 253 Мбайт (89%)
Аудио
Идентификатор : 1
Формат : WMA
Версия формата : Version 2
Идентификатор кодека : 161
Идентификатор кодека/Информация : Windows Media Audio
Описание кодека : Windows Media Audio V7 - 20 kbps, 32 kHz, mono
Продолжительность : 1 ч. 31 м.
Битрейт : 20,0 Кбит/сек
Канал(ы) : 1 канал
Частота : 32,0 КГц
Битовая глубина : 16 бит
Размер потока : 13,1 Мбайт (5%)
Общее
Полное имя : Лекции летней школы «Современная Математика», г. Дубна\Арнольд В. И\Астроидальная геометрия и топология. Лекция первая\v100.pdf
Размер файла : 1,24 Мбайт
Общее
Полное имя : Лекции летней школы «Современная Математика», г. Дубна\Арнольд В. И\Астроидальная геометрия и топология. Лекция первая\v100.wmv
Формат : Windows Media
Размер файла : 247 Мбайт
Продолжительность : 1 ч. 19 м.
Общий поток : 432 Кбит/сек
Максимальный общий битрейт : 430 Кбит/сек
Исполнитель : Encoded by INT, Mocow, Andrew E
Видео
Идентификатор : 2
Формат : MPEG-4 Visual
Идентификатор кодека : MP43
Идентификатор кодека/Информация : Microsoft MPEG-4 v3 (pre-standard)
Идентификатор кодека/Подсказка : Microsoft
Описание кодека : Windows Media MPEG-4 Video V3 -
Продолжительность : 1 ч. 19 м.
Битрейт : 386 Кбит/сек
Ширина : 640 пикс.
Высота : 480 пикс.
Соотношение сторон : 4:3
Частота кадров : 15,000 кадр/сек
Битовая глубина : 8 бит
Метод сжатия : С потерями
Бит/(Пиксели*Кадры) : 0.084
Размер потока : 220 Мбайт (89%)
Аудио
Идентификатор : 1
Формат : WMA
Версия формата : Version 2
Идентификатор кодека : 161
Идентификатор кодека/Информация : Windows Media Audio
Описание кодека : Windows Media Audio V7 - 20 kbps, 32 kHz, mono
Продолжительность : 1 ч. 19 м.
Битрейт : 20,0 Кбит/сек
Канал(ы) : 1 канал
Частота : 32,0 КГц
Битовая глубина : 16 бит
Размер потока : 11,4 Мбайт (5%)
Общее
Полное имя : Лекции летней школы «Современная Математика», г. Дубна\Арнольд В. И\Астроидальная геометрия и топология. Лекция первая\v101.pdf
Размер файла : 1,24 Мбайт
Общее
Полное имя : Лекции летней школы «Современная Математика», г. Дубна\Арнольд В. И\Квадратичные иррациональные числа, их цепные дроби и их палиндромы. Лекция второя\v136.rmvb
Формат : RealMedia
Размер файла : 195 Мбайт
Продолжительность : 1 ч. 7 м.
Общий поток : 400 Кбит/сек
Видео
Идентификатор : 1
Формат : RealVideo 4
Идентификатор кодека : RV40
Идентификатор кодека/Информация : Based on AVC (H.264), Real Player 9
Продолжительность : 1 ч. 7 м.
Битрейт : 334 Кбит/сек
Ширина : 384 пикс.
Высота : 288 пикс.
Соотношение сторон : 4:3
Частота кадров : 25,000 кадр/сек
Бит/(Пиксели*Кадры) : 0.121
Размер потока : 160 Мбайт (82%)
Аудио
Идентификатор : 0
Формат : Cooker
Идентификатор кодека : cook
Идентификатор кодека/Информация : Based on G.722.1, Real Player 6
Продолжительность : 1 ч. 7 м.
Битрейт : 64,1 Кбит/сек
Канал(ы) : 1 канал
Частота : 44,1 КГц
Битовая глубина : 16 бит
Размер потока : 30,7 Мбайт (16%)
Общее
Полное имя : Лекции летней школы «Современная Математика», г. Дубна\Арнольд В. И\Квадратичные иррациональные числа, их цепные дроби и их палиндромы. Лекция первая\v135.rmvb
Формат : RealMedia
Размер файла : 228 Мбайт
Продолжительность : 1 ч. 18 м.
Общий поток : 400 Кбит/сек
Видео
Идентификатор : 1
Формат : RealVideo 4
Идентификатор кодека : RV40
Идентификатор кодека/Информация : Based on AVC (H.264), Real Player 9
Продолжительность : 1 ч. 18 м.
Битрейт : 334 Кбит/сек
Ширина : 384 пикс.
Высота : 288 пикс.
Соотношение сторон : 4:3
Частота кадров : 25,000 кадр/сек
Бит/(Пиксели*Кадры) : 0.121
Размер потока : 187 Мбайт (82%)
Аудио
Идентификатор : 0
Формат : Cooker
Идентификатор кодека : cook
Идентификатор кодека/Информация : Based on G.722.1, Real Player 6
Продолжительность : 1 ч. 18 м.
Битрейт : 64,1 Кбит/сек
Канал(ы) : 1 канал
Частота : 44,1 КГц
Битовая глубина : 16 бит
Размер потока : 36,0 Мбайт (16%)
Общее
Полное имя : Лекции летней школы «Современная Математика», г. Дубна\Арнольд В. И\Квадратичные иррациональные числа, их цепные дроби и их палиндромы. Лекция пятая\v139.rmvb
Формат : RealMedia
Размер файла : 230 Мбайт
Продолжительность : 1 ч. 19 м.
Общий поток : 400 Кбит/сек
Видео
Идентификатор : 1
Формат : RealVideo 4
Идентификатор кодека : RV40
Идентификатор кодека/Информация : Based on AVC (H.264), Real Player 9
Продолжительность : 1 ч. 19 м.
Битрейт : 334 Кбит/сек
Ширина : 384 пикс.
Высота : 288 пикс.
Соотношение сторон : 4:3
Частота кадров : 25,000 кадр/сек
Бит/(Пиксели*Кадры) : 0.121
Размер потока : 189 Мбайт (82%)
Аудио
Идентификатор : 0
Формат : Cooker
Идентификатор кодека : cook
Идентификатор кодека/Информация : Based on G.722.1, Real Player 6
Продолжительность : 1 ч. 19 м.
Битрейт : 64,1 Кбит/сек
Канал(ы) : 1 канал
Частота : 44,1 КГц
Битовая глубина : 16 бит
Размер потока : 36,3 Мбайт (16%)
Общее
Полное имя : Лекции летней школы «Современная Математика», г. Дубна\Арнольд В. И\Квадратичные иррациональные числа, их цепные дроби и их палиндромы. Лекция третья\v137.rmvb
Формат : RealMedia
Размер файла : 208 Мбайт
Продолжительность : 1 ч. 11 м.
Общий поток : 400 Кбит/сек
Видео
Идентификатор : 1
Формат : RealVideo 4
Идентификатор кодека : RV40
Идентификатор кодека/Информация : Based on AVC (H.264), Real Player 9
Продолжительность : 1 ч. 11 м.
Битрейт : 334 Кбит/сек
Ширина : 384 пикс.
Высота : 288 пикс.
Соотношение сторон : 4:3
Частота кадров : 25,000 кадр/сек
Бит/(Пиксели*Кадры) : 0.121
Размер потока : 171 Мбайт (82%)
Аудио
Идентификатор : 0
Формат : Cooker
Идентификатор кодека : cook
Идентификатор кодека/Информация : Based on G.722.1, Real Player 6
Продолжительность : 1 ч. 11 м.
Битрейт : 64,1 Кбит/сек
Канал(ы) : 1 канал
Частота : 44,1 КГц
Битовая глубина : 16 бит
Размер потока : 32,9 Мбайт (16%)
Общее
Полное имя : Лекции летней школы «Современная Математика», г. Дубна\Арнольд В. И\Квадратичные иррациональные числа, их цепные дроби и их палиндромы. Лекция четвертая\v138.rmvb
Формат : RealMedia
Размер файла : 243 Мбайт
Продолжительность : 1 ч. 23 м.
Общий поток : 400 Кбит/сек
Видео
Идентификатор : 1
Формат : RealVideo 4
Идентификатор кодека : RV40
Идентификатор кодека/Информация : Based on AVC (H.264), Real Player 9
Продолжительность : 1 ч. 23 м.
Битрейт : 334 Кбит/сек
Ширина : 384 пикс.
Высота : 288 пикс.
Соотношение сторон : 4:3
Частота кадров : 25,000 кадр/сек
Бит/(Пиксели*Кадры) : 0.121
Размер потока : 200 Мбайт (82%)
Аудио
Идентификатор : 0
Формат : Cooker
Идентификатор кодека : cook
Идентификатор кодека/Информация : Based on G.722.1, Real Player 6
Продолжительность : 1 ч. 23 м.
Битрейт : 64,1 Кбит/сек
Канал(ы) : 1 канал
Частота : 44,1 КГц
Битовая глубина : 16 бит
Размер потока : 38,4 Мбайт (16%)
Общее
Полное имя : Лекции летней школы «Современная Математика», г. Дубна\Арнольд В. И\На сколько частей $n$ прямых делят плоскость\v126.rmvb
Формат : RealMedia
Размер файла : 216 Мбайт
Продолжительность : 1 ч. 14 м.
Общий поток : 400 Кбит/сек
Видео
Идентификатор : 1
Формат : RealVideo 4
Идентификатор кодека : RV40
Идентификатор кодека/Информация : Based on AVC (H.264), Real Player 9
Продолжительность : 1 ч. 14 м.
Битрейт : 334 Кбит/сек
Ширина : 384 пикс.
Высота : 288 пикс.
Соотношение сторон : 4:3
Частота кадров : 25,000 кадр/сек
Бит/(Пиксели*Кадры) : 0.121
Размер потока : 178 Мбайт (82%)
Аудио
Идентификатор : 0
Формат : Cooker
Идентификатор кодека : cook
Идентификатор кодека/Информация : Based on G.722.1, Real Player 6
Продолжительность : 1 ч. 14 м.
Битрейт : 64,1 Кбит/сек
Канал(ы) : 1 канал
Частота : 44,1 КГц
Битовая глубина : 16 бит
Размер потока : 34,1 Мбайт (16%)
Общее
Полное имя : Лекции летней школы «Современная Математика», г. Дубна\Арнольд В. И\Статистика топологии и алгебры\Статистика топологии и алгебры (1).avi
Формат : AVI
Формат/Информация : Audio Video Interleave
Размер файла : 573 Мбайт
Продолжительность : 1 ч. 16 м.
Общий поток : 1041 Кбит/сек
Библиотека кодирования : VirtualDub build 23604/release
Видео
Идентификатор : 0
Формат : MPEG-4 Visual
Профиль формата : Advanced Simple@L5
Параметр BVOP формата : 2
Параметр QPel формата : Нет
Параметр GMC формата : Без точки перехода
Параметр матрицы формата : Default (H.263)
Режим смешивания : Сжатый битовый поток
Идентификатор кодека : XVID
Идентификатор кодека/Подсказка : XviD
Продолжительность : 1 ч. 16 м.
Битрейт : 999 Кбит/сек
Ширина : 576 пикс.
Высота : 416 пикс.
Соотношение сторон : 1,385
Частота кадров : 25,000 кадр/сек
Цветовое пространство : YUV
Подвыборка цветности : 4:2:0
Битовая глубина : 8 бит
Тип развёртки : Прогрессивная
Метод сжатия : С потерями
Бит/(Пиксели*Кадры) : 0.167
Размер потока : 550 Мбайт (96%)
Библиотека кодирования : XviD 1.0.3 (UTC 2004-12-20)
Аудио
Идентификатор : 1
Формат : MPEG Audio
Версия формата : Version 2
Профиль формата : Layer 3
Идентификатор кодека : 55
Идентификатор кодека/Подсказка : MP3
Продолжительность : 1 ч. 16 м.
Вид битрейта : Постоянный
Битрейт : 32,0 Кбит/сек
Канал(ы) : 1 канал
Частота : 24,0 КГц
Метод сжатия : С потерями
Размер потока : 17,6 Мбайт (3%)
Выравнивание : Разделение по промежуткам
Продолжительность промежутка : 40 мс. (1,00 видеокадр)
Время предзагрузки промежутка : 500 ms
Общее
Полное имя : Лекции летней школы «Современная Математика», г. Дубна\Арнольд В. И\Топология алгебры и гидродинамика арифметики. Лекция второя\v49.rv
Формат : RealMedia
Размер файла : 127 Мбайт
Продолжительность : 1 ч. 16 м.
Общий поток : 225 Кбит/сек
Правообладатель : (C) 2005
Видео
Идентификатор : 0
Формат : RealVideo 4
Идентификатор кодека : RV40
Идентификатор кодека/Информация : Based on AVC (H.264), Real Player 9
Продолжительность : 1 ч. 16 м.
Битрейт : 181 Кбит/сек
Ширина : 640 пикс.
Высота : 480 пикс.
Соотношение сторон : 4:3
Частота кадров : 30,000 кадр/сек
Бит/(Пиксели*Кадры) : 0.020
Размер потока : 99,1 Мбайт (78%)
Аудио
Идентификатор : 1
Формат : Cooker
Идентификатор кодека : cook
Идентификатор кодека/Информация : Based on G.722.1, Real Player 6
Продолжительность : 1 ч. 16 м.
Битрейт : 44,1 Кбит/сек
Канал(ы) : 2 канала(ов)
Частота : 44,1 КГц
Битовая глубина : 16 бит
Размер потока : 24,2 Мбайт (19%)
Общее
Полное имя : Лекции летней школы «Современная Математика», г. Дубна\Арнольд В. И\Топология алгебры и гидродинамика арифметики. Лекция первая\v48.rv
Формат : RealMedia
Размер файла : 130 Мбайт
Продолжительность : 1 ч. 17 м.
Общий поток : 225 Кбит/сек
Правообладатель : (C) 2005
Видео
Идентификатор : 0
Формат : RealVideo 4
Идентификатор кодека : RV40
Идентификатор кодека/Информация : Based on AVC (H.264), Real Player 9
Продолжительность : 1 ч. 17 м.
Битрейт : 181 Кбит/сек
Ширина : 640 пикс.
Высота : 480 пикс.
Соотношение сторон : 4:3
Частота кадров : 30,000 кадр/сек
Бит/(Пиксели*Кадры) : 0.020
Размер потока : 101 Мбайт (78%)
Аудио
Идентификатор : 1
Формат : Cooker
Идентификатор кодека : cook
Идентификатор кодека/Информация : Based on G.722.1, Real Player 6
Продолжительность : 1 ч. 17 м.
Битрейт : 44,1 Кбит/сек
Канал(ы) : 2 канала(ов)
Частота : 44,1 КГц
Битовая глубина : 16 бит
Размер потока : 24,6 Мбайт (19%)
Общее
Полное имя : Лекции летней школы «Современная Математика», г. Дубна\Арнольд В. И\Тригонометрические многочлены Морса и шестнадцатая проблема Гильберта\Тригонометрические многочлены Морса и шестнадцатая проблема Гильберта (1).avi
Формат : AVI
Формат/Информация : Audio Video Interleave
Размер файла : 240 Мбайт
Продолжительность : 1 ч. 10 м.
Общий поток : 479 Кбит/сек
Видео
Идентификатор : 0
Формат : MPEG-4 Visual
Идентификатор кодека : DIV3
Идентификатор кодека/Подсказка : DivX 3 Low
Продолжительность : 1 ч. 10 м.
Битрейт : 153 Кбит/сек
Ширина : 352 пикс.
Высота : 288 пикс.
Соотношение сторон : 1,222
Частота кадров : 25,000 кадр/сек
Стандарт вещания : PAL
Цветовое пространство : YUV
Подвыборка цветности : 4:2:0
Битовая глубина : 8 бит
Метод сжатия : С потерями
Бит/(Пиксели*Кадры) : 0.060
Размер потока : 76,5 Мбайт (32%)
Аудио
Идентификатор : 1
Формат : MPEG Audio
Версия формата : Version 1
Профиль формата : Layer 3
Идентификатор кодека : 55
Идентификатор кодека/Подсказка : MP3
Продолжительность : 1 ч. 10 м.
Вид битрейта : Постоянный
Битрейт : 320 Кбит/сек
Канал(ы) : 2 канала(ов)
Частота : 44,1 КГц
Метод сжатия : С потерями
Задержка видео : 23 мс.
Размер потока : 160 Мбайт (67%)
Выравнивание : Разделение по промежуткам
Продолжительность промежутка : 1001 мс. (25,02 видеокадров)
Общее
Полное имя : Лекции летней школы «Современная Математика», г. Дубна\Арнольд В. И\Цепные дроби квадратных корней из целых чисел. Лекция вторая\v208.rmvb
Формат : RealMedia
Размер файла : 205 Мбайт
Продолжительность : 1 ч. 10 м.
Общий поток : 400 Кбит/сек
Видео
Идентификатор : 1
Формат : RealVideo 4
Идентификатор кодека : RV40
Идентификатор кодека/Информация : Based on AVC (H.264), Real Player 9
Продолжительность : 1 ч. 10 м.
Битрейт : 334 Кбит/сек
Ширина : 384 пикс.
Высота : 288 пикс.
Соотношение сторон : 4:3
Частота кадров : 25,000 кадр/сек
Бит/(Пиксели*Кадры) : 0.121
Размер потока : 169 Мбайт (82%)
Аудио
Идентификатор : 0
Формат : Cooker
Идентификатор кодека : cook
Идентификатор кодека/Информация : Based on G.722.1, Real Player 6
Продолжительность : 1 ч. 10 м.
Битрейт : 64,1 Кбит/сек
Канал(ы) : 1 канал
Частота : 44,1 КГц
Битовая глубина : 16 бит
Размер потока : 32,4 Мбайт (16%)
Общее
Полное имя : Лекции летней школы «Современная Математика», г. Дубна\Арнольд В. И\Цепные дроби квадратных корней из целых чисел. Лекция первая\v207.rmvb
Формат : RealMedia
Размер файла : 201 Мбайт
Продолжительность : 1 ч. 9 м.
Общий поток : 400 Кбит/сек
Видео
Идентификатор : 1
Формат : RealVideo 4
Идентификатор кодека : RV40
Идентификатор кодека/Информация : Based on AVC (H.264), Real Player 9
Продолжительность : 1 ч. 9 м.
Битрейт : 334 Кбит/сек
Ширина : 384 пикс.
Высота : 288 пикс.
Соотношение сторон : 4:3
Частота кадров : 25,000 кадр/сек
Бит/(Пиксели*Кадры) : 0.121
Размер потока : 165 Мбайт (82%)
Аудио
Идентификатор : 0
Формат : Cooker
Идентификатор кодека : cook
Идентификатор кодека/Информация : Based on G.722.1, Real Player 6
Продолжительность : 1 ч. 9 м.
Битрейт : 64,1 Кбит/сек
Канал(ы) : 1 канал
Частота : 44,1 КГц
Битовая глубина : 16 бит
Размер потока : 31,8 Мбайт (16%)
Общее
Полное имя : Лекции летней школы «Современная Математика», г. Дубна\Арнольд В. И\Цепные дроби квадратных корней из целых чисел. Лекция пятая\v223.rmvb
Формат : RealMedia
Размер файла : 232 Мбайт
Продолжительность : 1 ч. 19 м.
Общий поток : 400 Кбит/сек
Видео
Идентификатор : 1
Формат : RealVideo 4
Идентификатор кодека : RV40
Идентификатор кодека/Информация : Based on AVC (H.264), Real Player 9
Продолжительность : 1 ч. 19 м.
Битрейт : 334 Кбит/сек
Ширина : 384 пикс.
Высота : 288 пикс.
Соотношение сторон : 4:3
Частота кадров : 25,000 кадр/сек
Бит/(Пиксели*Кадры) : 0.121
Размер потока : 191 Мбайт (82%)
Аудио
Идентификатор : 0
Формат : Cooker
Идентификатор кодека : cook
Идентификатор кодека/Информация : Based on G.722.1, Real Player 6
Продолжительность : 1 ч. 20 м.
Битрейт : 64,1 Кбит/сек
Канал(ы) : 1 канал
Частота : 44,1 КГц
Битовая глубина : 16 бит
Размер потока : 36,7 Мбайт (16%)
Общее
Полное имя : Лекции летней школы «Современная Математика», г. Дубна\Арнольд В. И\Цепные дроби квадратных корней из целых чисел. Лекция третья\v209.rmvb
Формат : RealMedia
Размер файла : 196 Мбайт
Продолжительность : 1 ч. 7 м.
Общий поток : 400 Кбит/сек
Видео
Идентификатор : 1
Формат : RealVideo 4
Идентификатор кодека : RV40
Идентификатор кодека/Информация : Based on AVC (H.264), Real Player 9
Продолжительность : 1 ч. 7 м.
Битрейт : 334 Кбит/сек
Ширина : 384 пикс.
Высота : 288 пикс.
Соотношение сторон : 4:3
Частота кадров : 25,000 кадр/сек
Бит/(Пиксели*Кадры) : 0.121
Размер потока : 161 Мбайт (82%)
Аудио
Идентификатор : 0
Формат : Cooker
Идентификатор кодека : cook
Идентификатор кодека/Информация : Based on G.722.1, Real Player 6
Продолжительность : 1 ч. 7 м.
Битрейт : 64,1 Кбит/сек
Канал(ы) : 1 канал
Частота : 44,1 КГц
Битовая глубина : 16 бит
Размер потока : 31,0 Мбайт (16%)
Общее
Полное имя : Лекции летней школы «Современная Математика», г. Дубна\Арнольд В. И\Цепные дроби квадратных корней из целых чисел. Лекция четвертая\v210.rmvb
Формат : RealMedia
Размер файла : 212 Мбайт
Продолжительность : 1 ч. 13 м.
Общий поток : 400 Кбит/сек
Видео
Идентификатор : 1
Формат : RealVideo 4
Идентификатор кодека : RV40
Идентификатор кодека/Информация : Based on AVC (H.264), Real Player 9
Продолжительность : 1 ч. 13 м.
Битрейт : 334 Кбит/сек
Ширина : 384 пикс.
Высота : 288 пикс.
Соотношение сторон : 4:3
Частота кадров : 25,000 кадр/сек
Бит/(Пиксели*Кадры) : 0.121
Размер потока : 175 Мбайт (82%)
Аудио
Идентификатор : 0
Формат : Cooker
Идентификатор кодека : cook
Идентификатор кодека/Информация : Based on G.722.1, Real Player 6
Продолжительность : 1 ч. 13 м.
Битрейт : 64,1 Кбит/сек
Канал(ы) : 1 канал
Частота : 44,1 КГц
Битовая глубина : 16 бит
Размер потока : 33,5 Мбайт (16%)
Общее
Полное имя : Лекции летней школы «Современная Математика», г. Дубна\Балазар М\Арифметические прогрессии простых чисел\v154.rmvb
Формат : RealMedia
Размер файла : 221 Мбайт
Продолжительность : 1 ч. 16 м.
Общий поток : 400 Кбит/сек
Видео
Идентификатор : 1
Формат : RealVideo 4
Идентификатор кодека : RV40
Идентификатор кодека/Информация : Based on AVC (H.264), Real Player 9
Продолжительность : 1 ч. 16 м.
Битрейт : 334 Кбит/сек
Ширина : 384 пикс.
Высота : 288 пикс.
Соотношение сторон : 4:3
Частота кадров : 25,000 кадр/сек
Бит/(Пиксели*Кадры) : 0.121
Размер потока : 182 Мбайт (82%)
Аудио
Идентификатор : 0
Формат : Cooker
Идентификатор кодека : cook
Идентификатор кодека/Информация : Based on G.722.1, Real Player 6
Продолжительность : 1 ч. 16 м.
Битрейт : 64,1 Кбит/сек
Канал(ы) : 1 канал
Частота : 44,1 КГц
Битовая глубина : 16 бит
Размер потока : 35,0 Мбайт (16%)
Общее
Полное имя : Лекции летней школы «Современная Математика», г. Дубна\Болибрух А. А\Задача факторизации матриц и ее применения\v114.rmvb
Формат : RealMedia
Размер файла : 216 Мбайт
Продолжительность : 1 ч. 14 м.
Общий поток : 400 Кбит/сек
Видео
Идентификатор : 1
Формат : RealVideo 4
Идентификатор кодека : RV40
Идентификатор кодека/Информация : Based on AVC (H.264), Real Player 9
Продолжительность : 1 ч. 14 м.
Битрейт : 334 Кбит/сек
Ширина : 384 пикс.
Высота : 288 пикс.
Соотношение сторон : 4:3
Частота кадров : 25,000 кадр/сек
Бит/(Пиксели*Кадры) : 0.121
Размер потока : 178 Мбайт (82%)
Аудио
Идентификатор : 0
Формат : Cooker
Идентификатор кодека : cook
Идентификатор кодека/Информация : Based on G.722.1, Real Player 6
Продолжительность : 1 ч. 14 м.
Битрейт : 64,1 Кбит/сек
Канал(ы) : 1 канал
Частота : 44,1 КГц
Битовая глубина : 16 бит
Размер потока : 34,2 Мбайт (16%)
Общее
Полное имя : Лекции летней школы «Современная Математика», г. Дубна\Болибрух А. А\Уравнения Максвелла, внешние дифференциальные формы и расслоения. Лекция вторая\v103.wmv
Формат : Windows Media
Размер файла : 239 Мбайт
Продолжительность : 1 ч. 17 м.
Общий поток : 432 Кбит/сек
Максимальный общий битрейт : 430 Кбит/сек
Исполнитель : Encoded by INT, Mocow, Andrew E
Видео
Идентификатор : 2
Формат : MPEG-4 Visual
Идентификатор кодека : MP43
Идентификатор кодека/Информация : Microsoft MPEG-4 v3 (pre-standard)
Идентификатор кодека/Подсказка : Microsoft
Описание кодека : Windows Media MPEG-4 Video V3 -
Продолжительность : 1 ч. 17 м.
Битрейт : 386 Кбит/сек
Ширина : 640 пикс.
Высота : 480 пикс.
Соотношение сторон : 4:3
Частота кадров : 15,000 кадр/сек
Битовая глубина : 8 бит
Метод сжатия : С потерями
Бит/(Пиксели*Кадры) : 0.084
Размер потока : 214 Мбайт (89%)
Аудио
Идентификатор : 1
Формат : WMA
Версия формата : Version 2
Идентификатор кодека : 161
Идентификатор кодека/Информация : Windows Media Audio
Описание кодека : Windows Media Audio V7 - 20 kbps, 32 kHz, mono
Продолжительность : 1 ч. 17 м.
Битрейт : 20,0 Кбит/сек
Канал(ы) : 1 канал
Частота : 32,0 КГц
Битовая глубина : 16 бит
Размер потока : 11,1 Мбайт (5%)
Общее
Полное имя : Лекции летней школы «Современная Математика», г. Дубна\Болибрух А. А\Уравнения Максвелла, внешние дифференциальные формы и расслоения. Лекция первая\v102.pdf
Размер файла : 274 Кбайт
Общее
Полное имя : Лекции летней школы «Современная Математика», г. Дубна\Болибрух А. А\Уравнения Максвелла, внешние дифференциальные формы и расслоения. Лекция первая\v102.wmv
Формат : Windows Media
Размер файла : 256 Мбайт
Продолжительность : 1 ч. 22 м.
Общий поток : 432 Кбит/сек
Максимальный общий битрейт : 430 Кбит/сек
Исполнитель : Encoded by INT, Mocow, Andrew E
Видео
Идентификатор : 2
Формат : MPEG-4 Visual
Идентификатор кодека : MP43
Идентификатор кодека/Информация : Microsoft MPEG-4 v3 (pre-standard)
Идентификатор кодека/Подсказка : Microsoft
Описание кодека : Windows Media MPEG-4 Video V3 -
Продолжительность : 1 ч. 22 м.
Битрейт : 386 Кбит/сек
Ширина : 640 пикс.
Высота : 480 пикс.
Соотношение сторон : 4:3
Частота кадров : 15,000 кадр/сек
Битовая глубина : 8 бит
Метод сжатия : С потерями
Бит/(Пиксели*Кадры) : 0.084
Размер потока : 229 Мбайт (89%)
Аудио
Идентификатор : 1
Формат : WMA
Версия формата : Version 2
Идентификатор кодека : 161
Идентификатор кодека/Информация : Windows Media Audio
Описание кодека : Windows Media Audio V7 - 20 kbps, 32 kHz, mono
Продолжительность : 1 ч. 22 м.
Битрейт : 20,0 Кбит/сек
Канал(ы) : 1 канал
Частота : 32,0 КГц
Битовая глубина : 16 бит
Размер потока : 11,8 Мбайт (5%)
Общее
Полное имя : Лекции летней школы «Современная Математика», г. Дубна\Болибрух А. А\Уравнения Максвелла, внешние дифференциальные формы и расслоения. Лекция первая\v103.pdf
Размер файла : 274 Кбайт
Общее
Полное имя : Лекции летней школы «Современная Математика», г. Дубна\Бурман Ю. М\Квантовая механика. Лекция 1\2356.wmv
Формат : Windows Media
Размер файла : 547 Мбайт
Продолжительность : 1 ч. 18 м.
Режим общего битрейта : Переменный
Общий поток : 978 Кбит/сек
Максимальный общий битрейт : 1195 Кбит/сек
Дата кодирования : UTC 2010-10-16 01:35:59.490
Видео
Идентификатор : 2
Формат : VC-1
Профиль формата : MP@ML
Идентификатор кодека : WMV3
Идентификатор кодека/Информация : Windows Media Video 9
Идентификатор кодека/Подсказка : WMV3
Описание кодека : Windows Media Video 9
Продолжительность : 1 ч. 18 м.
Вид битрейта : Переменный
Битрейт : 872 Кбит/сек
Ширина : 720 пикс.
Высота : 576 пикс.
Соотношение сторон : 5:4
Частота кадров : 25,000 кадр/сек
Стандарт вещания : PAL
Битовая глубина : 8 бит
Тип развёртки : Прогрессивная
Метод сжатия : С потерями
Бит/(Пиксели*Кадры) : 0.084
Размер потока : 488 Мбайт (89%)
NumberOfFrames : 117291
Аудио
Идентификатор : 1
Формат : WMA
Версия формата : Version 2
Идентификатор кодека : 161
Идентификатор кодека/Информация : Windows Media Audio
Описание кодека : Windows Media Audio 9.2 - 96 kbps, 48 kHz, stereo 2-pass VBR
Продолжительность : 1 ч. 18 м.
Вид битрейта : Переменный
Битрейт : 95,9 Кбит/сек
Канал(ы) : 2 канала(ов)
Частота : 48,0 КГц
Битовая глубина : 16 бит
Размер потока : 53,7 Мбайт (10%)
Общее
Полное имя : Лекции летней школы «Современная Математика», г. Дубна\Бурман Ю. М\Квантовая механика. Лекция 2\2413.wmv
Формат : Windows Media
Размер файла : 532 Мбайт
Продолжительность : 1 ч. 16 м.
Режим общего битрейта : Переменный
Общий поток : 978 Кбит/сек
Максимальный общий битрейт : 1538 Кбит/сек
Дата кодирования : UTC 2010-10-21 21:59:09.892
Видео
Идентификатор : 2
Формат : VC-1
Профиль формата : MP@ML
Идентификатор кодека : WMV3
Идентификатор кодека/Информация : Windows Media Video 9
Идентификатор кодека/Подсказка : WMV3
Описание кодека : Windows Media Video 9
Продолжительность : 1 ч. 16 м.
Вид битрейта : Переменный
Битрейт : 872 Кбит/сек
Ширина : 720 пикс.
Высота : 576 пикс.
Соотношение сторон : 5:4
Частота кадров : 25,000 кадр/сек
Стандарт вещания : PAL
Битовая глубина : 8 бит
Тип развёртки : Прогрессивная
Метод сжатия : С потерями
Бит/(Пиксели*Кадры) : 0.084
Размер потока : 474 Мбайт (89%)
NumberOfFrames : 114098
Аудио
Идентификатор : 1
Формат : WMA
Версия формата : Version 2
Идентификатор кодека : 161
Идентификатор кодека/Информация : Windows Media Audio
Описание кодека : Windows Media Audio 9.2 - 96 kbps, 48 kHz, stereo 2-pass VBR
Продолжительность : 1 ч. 16 м.
Вид битрейта : Переменный
Битрейт : 96,0 Кбит/сек
Канал(ы) : 2 канала(ов)
Частота : 48,0 КГц
Битовая глубина : 16 бит
Размер потока : 52,2 Мбайт (10%)
Общее
Полное имя : Лекции летней школы «Современная Математика», г. Дубна\Бурман Ю. М\Квантовая механика. Лекция 3\2463.wmv
Формат : Windows Media
Размер файла : 571 Мбайт
Продолжительность : 1 ч. 21 м.
Режим общего битрейта : Переменный
Общий поток : 978 Кбит/сек
Максимальный общий битрейт : 1346 Кбит/сек
Дата кодирования : UTC 2010-10-26 00:31:26.380
Видео
Идентификатор : 2
Формат : VC-1
Профиль формата : MP@ML
Идентификатор кодека : WMV3
Идентификатор кодека/Информация : Windows Media Video 9
Идентификатор кодека/Подсказка : WMV3
Описание кодека : Windows Media Video 9
Продолжительность : 1 ч. 21 м.
Вид битрейта : Переменный
Битрейт : 872 Кбит/сек
Ширина : 720 пикс.
Высота : 576 пикс.
Соотношение сторон : 5:4
Частота кадров : 25,000 кадр/сек
Стандарт вещания : PAL
Битовая глубина : 8 бит
Тип развёртки : Прогрессивная
Метод сжатия : С потерями
Бит/(Пиксели*Кадры) : 0.084
Размер потока : 509 Мбайт (89%)
NumberOfFrames : 122477
Аудио
Идентификатор : 1
Формат : WMA
Версия формата : Version 2
Идентификатор кодека : 161
Идентификатор кодека/Информация : Windows Media Audio
Описание кодека : Windows Media Audio 9.2 - 96 kbps, 48 kHz, stereo 2-pass VBR
Продолжительность : 1 ч. 21 м.
Вид битрейта : Переменный
Битрейт : 96,0 Кбит/сек
Канал(ы) : 2 канала(ов)
Частота : 48,0 КГц
Битовая глубина : 16 бит
Размер потока : 56,0 Мбайт (10%)
Общее
Полное имя : Лекции летней школы «Современная Математика», г. Дубна\Буфетов А. И., Козин Н. Е\Диаграммы Юнга, ортогональные полиномы и случайные матрицы. Лекция 1\1303.wmv
Формат : Windows Media
Размер файла : 488 Мбайт
Продолжительность : 1 ч. 9 м.
Режим общего битрейта : Переменный
Общий поток : 978 Кбит/сек
Максимальный общий битрейт : 1298 Кбит/сек
Дата кодирования : UTC 2010-09-23 19:55:09.869
Видео
Идентификатор : 2
Формат : VC-1
Профиль формата : MP@ML
Идентификатор кодека : WMV3
Идентификатор кодека/Информация : Windows Media Video 9
Идентификатор кодека/Подсказка : WMV3
Описание кодека : Windows Media Video 9
Продолжительность : 1 ч. 9 м.
Вид битрейта : Переменный
Битрейт : 872 Кбит/сек
Ширина : 720 пикс.
Высота : 576 пикс.
Соотношение сторон : 5:4
Частота кадров : 25,000 кадр/сек
Стандарт вещания : PAL
Битовая глубина : 8 бит
Тип развёртки : Прогрессивная
Метод сжатия : С потерями
Бит/(Пиксели*Кадры) : 0.084
Размер потока : 435 Мбайт (89%)
NumberOfFrames : 104624
Аудио
Идентификатор : 1
Формат : WMA
Версия формата : Version 2
Идентификатор кодека : 161
Идентификатор кодека/Информация : Windows Media Audio
Описание кодека : Windows Media Audio 9.2 - 96 kbps, 48 kHz, stereo 2-pass VBR
Продолжительность : 1 ч. 9 м.
Вид битрейта : Переменный
Битрейт : 95,9 Кбит/сек
Канал(ы) : 2 канала(ов)
Частота : 48,0 КГц
Битовая глубина : 16 бит
Размер потока : 47,9 Мбайт (10%)
Общее
Полное имя : Лекции летней школы «Современная Математика», г. Дубна\Буфетов А. И., Козин Н. Е\Диаграммы Юнга, ортогональные полиномы и случайные матрицы. Лекция 2\1304.wmv
Формат : Windows Media
Размер файла : 505 Мбайт
Продолжительность : 1 ч. 12 м.
Режим общего битрейта : Переменный
Общий поток : 978 Кбит/сек
Максимальный общий битрейт : 1260 Кбит/сек
Дата кодирования : UTC 2010-09-24 12:06:01.890
Видео
Идентификатор : 2
Формат : VC-1
Профиль формата : MP@ML
Идентификатор кодека : WMV3
Идентификатор кодека/Информация : Windows Media Video 9
Идентификатор кодека/Подсказка : WMV3
Описание кодека : Windows Media Video 9
Продолжительность : 1 ч. 12 м.
Вид битрейта : Переменный
Битрейт : 872 Кбит/сек
Ширина : 720 пикс.
Высота : 576 пикс.
Соотношение сторон : 5:4
Частота кадров : 25,000 кадр/сек
Стандарт вещания : PAL
Битовая глубина : 8 бит
Тип развёртки : Прогрессивная
Метод сжатия : С потерями
Бит/(Пиксели*Кадры) : 0.084
Размер потока : 450 Мбайт (89%)
NumberOfFrames : 108266
Аудио
Идентификатор : 1
Формат : WMA
Версия формата : Version 2
Идентификатор кодека : 161
Идентификатор кодека/Информация : Windows Media Audio
Описание кодека : Windows Media Audio 9.2 - 96 kbps, 48 kHz, stereo 2-pass VBR
Продолжительность : 1 ч. 12 м.
Вид битрейта : Переменный
Битрейт : 95,9 Кбит/сек
Канал(ы) : 2 канала(ов)
Частота : 48,0 КГц
Битовая глубина : 16 бит
Размер потока : 49,5 Мбайт (10%)
Общее
Полное имя : Лекции летней школы «Современная Математика», г. Дубна\Васильев В. А\Элементарные топологические задачи\v107.wmv
Формат : Windows Media
Размер файла : 254 Мбайт
Продолжительность : 1 ч. 22 м.
Общий поток : 433 Кбит/сек
Максимальный общий битрейт : 430 Кбит/сек
Исполнитель : Encoded by INT, Mocow, Andrew Eremin & Vlada Kulik
Видео
Идентификатор : 2
Формат : MPEG-4 Visual
Идентификатор кодека : MP43
Идентификатор кодека/Информация : Microsoft MPEG-4 v3 (pre-standard)
Идентификатор кодека/Подсказка : Microsoft
Описание кодека : Windows Media MPEG-4 Video V3 -
Продолжительность : 1 ч. 22 м.
Битрейт : 387 Кбит/сек
Ширина : 640 пикс.
Высота : 480 пикс.
Соотношение сторон : 4:3
Частота кадров : 15,000 кадр/сек
Битовая глубина : 8 бит
Метод сжатия : С потерями
Бит/(Пиксели*Кадры) : 0.084
Размер потока : 227 Мбайт (89%)
Аудио
Идентификатор : 1
Формат : WMA
Версия формата : Version 2
Идентификатор кодека : 161
Идентификатор кодека/Информация : Windows Media Audio
Описание кодека : Windows Media Audio V7 - 20 kbps, 32 kHz, mono
Продолжительность : 1 ч. 22 м.
Битрейт : 20,0 Кбит/сек
Канал(ы) : 1 канал
Частота : 32,0 КГц
Битовая глубина : 16 бит
Размер потока : 11,8 Мбайт (5%)
Общее
Полное имя : Лекции летней школы «Современная Математика», г. Дубна\Вершик А. М\A что будет, если $n$ очень большое... Лекция вторая\v232.rmvb
Формат : RealMedia
Размер файла : 232 Мбайт
Продолжительность : 1 ч. 20 м.
Общий поток : 400 Кбит/сек
Видео
Идентификатор : 1
Формат : RealVideo 4
Идентификатор кодека : RV40
Идентификатор кодека/Информация : Based on AVC (H.264), Real Player 9
Продолжительность : 1 ч. 20 м.
Битрейт : 334 Кбит/сек
Ширина : 384 пикс.
Высота : 288 пикс.
Соотношение сторон : 4:3
Частота кадров : 25,000 кадр/сек
Бит/(Пиксели*Кадры) : 0.121
Размер потока : 191 Мбайт (82%)
Аудио
Идентификатор : 0
Формат : Cooker
Идентификатор кодека : cook
Идентификатор кодека/Информация : Based on G.722.1, Real Player 6
Продолжительность : 1 ч. 20 м.
Битрейт : 64,1 Кбит/сек
Канал(ы) : 1 канал
Частота : 44,1 КГц
Битовая глубина : 16 бит
Размер потока : 36,7 Мбайт (16%)
Общее
Полное имя : Лекции летней школы «Современная Математика», г. Дубна\Вершик А. М\A что будет, если $n$ очень большое... Лекция первая\v231.pdf
Размер файла : 166 Кбайт
Общее
Полное имя : Лекции летней школы «Современная Математика», г. Дубна\Вершик А. М\A что будет, если $n$ очень большое... Лекция первая\v231.rmvb
Формат : RealMedia
Размер файла : 242 Мбайт
Продолжительность : 1 ч. 23 м.
Общий поток : 400 Кбит/сек
Видео
Идентификатор : 1
Формат : RealVideo 4
Идентификатор кодека : RV40
Идентификатор кодека/Информация : Based on AVC (H.264), Real Player 9
Продолжительность : 1 ч. 23 м.
Битрейт : 334 Кбит/сек
Ширина : 384 пикс.
Высота : 288 пикс.
Соотношение сторон : 4:3
Частота кадров : 25,000 кадр/сек
Бит/(Пиксели*Кадры) : 0.121
Размер потока : 199 Мбайт (82%)
Аудио
Идентификатор : 0
Формат : Cooker
Идентификатор кодека : cook
Идентификатор кодека/Информация : Based on G.722.1, Real Player 6
Продолжительность : 1 ч. 23 м.
Битрейт : 64,1 Кбит/сек
Канал(ы) : 1 канал
Частота : 44,1 КГц
Битовая глубина : 16 бит
Размер потока : 38,3 Мбайт (16%)
Общее
Полное имя : Лекции летней школы «Современная Математика», г. Дубна\Вершик А. М\A что будет, если $n$ очень большое... Лекция третья\v233.rmvb
Формат : RealMedia
Размер файла : 209 Мбайт
Продолжительность : 1 ч. 11 м.
Общий поток : 400 Кбит/сек
Видео
Идентификатор : 1
Формат : RealVideo 4
Идентификатор кодека : RV40
Идентификатор кодека/Информация : Based on AVC (H.264), Real Player 9
Продолжительность : 1 ч. 11 м.
Битрейт : 335 Кбит/сек
Ширина : 384 пикс.
Высота : 288 пикс.
Соотношение сторон : 4:3
Частота кадров : 25,000 кадр/сек
Бит/(Пиксели*Кадры) : 0.121
Размер потока : 172 Мбайт (82%)
Аудио
Идентификатор : 0
Формат : Cooker
Идентификатор кодека : cook
Идентификатор кодека/Информация : Based on G.722.1, Real Player 6
Продолжительность : 1 ч. 11 м.
Битрейт : 64,1 Кбит/сек
Канал(ы) : 1 канал
Частота : 44,1 КГц
Битовая глубина : 16 бит
Размер потока : 33,0 Мбайт (16%)
Общее
Полное имя : Лекции летней школы «Современная Математика», г. Дубна\Долбилин Н. П\Теорема А. Д. Александрова о развертках выпуклых многогранников\v236.rmvb
Формат : RealMedia
Размер файла : 231 Мбайт
Продолжительность : 1 ч. 19 м.
Общий поток : 400 Кбит/сек
Видео
Идентификатор : 1
Формат : RealVideo 4
Идентификатор кодека : RV40
Идентификатор кодека/Информация : Based on AVC (H.264), Real Player 9
Продолжительность : 1 ч. 19 м.
Битрейт : 335 Кбит/сек
Ширина : 384 пикс.
Высота : 288 пикс.
Соотношение сторон : 4:3
Частота кадров : 25,000 кадр/сек
Бит/(Пиксели*Кадры) : 0.121
Размер потока : 190 Мбайт (82%)
Аудио
Идентификатор : 0
Формат : Cooker
Идентификатор кодека : cook
Идентификатор кодека/Информация : Based on G.722.1, Real Player 6
Продолжительность : 1 ч. 19 м.
Битрейт : 64,1 Кбит/сек
Канал(ы) : 1 канал
Частота : 44,1 КГц
Битовая глубина : 16 бит
Размер потока : 36,4 Мбайт (16%)
Общее
Полное имя : Лекции летней школы «Современная Математика», г. Дубна\Долбилин Н. П\Теорема Минковского о выпуклых многогранниках и ее приложения\v133.rmvb
Формат : RealMedia
Размер файла : 237 Мбайт
Продолжительность : 1 ч. 21 м.
Общий поток : 400 Кбит/сек
Видео
Идентификатор : 1
Формат : RealVideo 4
Идентификатор кодека : RV40
Идентификатор кодека/Информация : Based on AVC (H.264), Real Player 9
Продолжительность : 1 ч. 21 м.
Битрейт : 334 Кбит/сек
Ширина : 384 пикс.
Высота : 288 пикс.
Соотношение сторон : 4:3
Частота кадров : 25,000 кадр/сек
Бит/(Пиксели*Кадры) : 0.121
Размер потока : 195 Мбайт (82%)
Аудио
Идентификатор : 0
Формат : Cooker
Идентификатор кодека : cook
Идентификатор кодека/Информация : Based on G.722.1, Real Player 6
Продолжительность : 1 ч. 21 м.
Битрейт : 64,1 Кбит/сек
Канал(ы) : 1 канал
Частота : 44,1 КГц
Битовая глубина : 16 бит
Размер потока : 37,5 Мбайт (16%)
Общее
Полное имя : Лекции летней школы «Современная Математика», г. Дубна\Звонкин Д. А\От статистической физики к математическим задачам. Лекция вторая\v225.rmvb
Формат : RealMedia
Размер файла : 234 Мбайт
Продолжительность : 1 ч. 20 м.
Общий поток : 400 Кбит/сек
Видео
Идентификатор : 1
Формат : RealVideo 4
Идентификатор кодека : RV40
Идентификатор кодека/Информация : Based on AVC (H.264), Real Player 9
Продолжительность : 1 ч. 20 м.
Битрейт : 334 Кбит/сек
Ширина : 384 пикс.
Высота : 288 пикс.
Соотношение сторон : 4:3
Частота кадров : 25,000 кадр/сек
Бит/(Пиксели*Кадры) : 0.121
Размер потока : 192 Мбайт (82%)
Аудио
Идентификатор : 0
Формат : Cooker
Идентификатор кодека : cook
Идентификатор кодека/Информация : Based on G.722.1, Real Player 6
Продолжительность : 1 ч. 20 м.
Битрейт : 64,1 Кбит/сек
Канал(ы) : 1 канал
Частота : 44,1 КГц
Битовая глубина : 16 бит
Размер потока : 37,0 Мбайт (16%)
Общее
Полное имя : Лекции летней школы «Современная Математика», г. Дубна\Звонкин Д. А\От статистической физики к математическим задачам. Лекция первая\v224.rmvb
Формат : RealMedia
Размер файла : 227 Мбайт
Продолжительность : 1 ч. 17 м.
Общий поток : 401 Кбит/сек
Видео
Идентификатор : 1
Формат : RealVideo 4
Идентификатор кодека : RV40
Идентификатор кодека/Информация : Based on AVC (H.264), Real Player 9
Продолжительность : 1 ч. 17 м.
Битрейт : 337 Кбит/сек
Ширина : 384 пикс.
Высота : 288 пикс.
Соотношение сторон : 4:3
Частота кадров : 25,000 кадр/сек
Бит/(Пиксели*Кадры) : 0.122
Размер потока : 187 Мбайт (82%)
Аудио
Идентификатор : 0
Формат : Cooker
Идентификатор кодека : cook
Идентификатор кодека/Информация : Based on G.722.1, Real Player 6
Продолжительность : 1 ч. 17 м.
Битрейт : 64,1 Кбит/сек
Канал(ы) : 1 канал
Частота : 44,1 КГц
Битовая глубина : 16 бит
Размер потока : 35,6 Мбайт (16%)
Общее
Полное имя : Лекции летней школы «Современная Математика», г. Дубна\Звонкин Д. А\От статистической физики к математическим задачам. Лекция третья\v226.rmvb
Формат : RealMedia
Размер файла : 217 Мбайт
Продолжительность : 1 ч. 14 м.
Общий поток : 400 Кбит/сек
Видео
Идентификатор : 1
Формат : RealVideo 4
Идентификатор кодека : RV40
Идентификатор кодека/Информация : Based on AVC (H.264), Real Player 9
Продолжительность : 1 ч. 14 м.
Битрейт : 334 Кбит/сек
Ширина : 384 пикс.
Высота : 288 пикс.
Соотношение сторон : 4:3
Частота кадров : 25,000 кадр/сек
Бит/(Пиксели*Кадры) : 0.121
Размер потока : 178 Мбайт (82%)
Аудио
Идентификатор : 0
Формат : Cooker
Идентификатор кодека : cook
Идентификатор кодека/Информация : Based on G.722.1, Real Player 6
Продолжительность : 1 ч. 14 м.
Битрейт : 64,1 Кбит/сек
Канал(ы) : 1 канал
Частота : 44,1 КГц
Битовая глубина : 16 бит
Размер потока : 34,2 Мбайт (16%)
Общее
Полное имя : Лекции летней школы «Современная Математика», г. Дубна\Звонкин Д. А\От статистической физики к математическим задачам. Лекция четвертая\v227.rmvb
Формат : RealMedia
Размер файла : 241 Мбайт
Продолжительность : 1 ч. 23 м.
Общий поток : 400 Кбит/сек
Видео
Идентификатор : 1
Формат : RealVideo 4
Идентификатор кодека : RV40
Идентификатор кодека/Информация : Based on AVC (H.264), Real Player 9
Продолжительность : 1 ч. 23 м.
Битрейт : 334 Кбит/сек
Ширина : 384 пикс.
Высота : 288 пикс.
Соотношение сторон : 4:3
Частота кадров : 25,000 кадр/сек
Бит/(Пиксели*Кадры) : 0.121
Размер потока : 198 Мбайт (82%)
Аудио
Идентификатор : 0
Формат : Cooker
Идентификатор кодека : cook
Идентификатор кодека/Информация : Based on G.722.1, Real Player 6
Продолжительность : 1 ч. 23 м.
Битрейт : 64,1 Кбит/сек
Канал(ы) : 1 канал
Частота : 44,1 КГц
Битовая глубина : 16 бит
Размер потока : 38,1 Мбайт (16%)
Общее
Полное имя : Лекции летней школы «Современная Математика», г. Дубна\Зильберман А. Р\Физическое моделирование, обратная связь и ее практическое применение\v127.rmvb
Формат : RealMedia
Размер файла : 233 Мбайт
Продолжительность : 1 ч. 20 м.
Общий поток : 400 Кбит/сек
Видео
Идентификатор : 1
Формат : RealVideo 4
Идентификатор кодека : RV40
Идентификатор кодека/Информация : Based on AVC (H.264), Real Player 9
Продолжительность : 1 ч. 20 м.
Битрейт : 334 Кбит/сек
Ширина : 384 пикс.
Высота : 288 пикс.
Соотношение сторон : 4:3
Частота кадров : 25,000 кадр/сек
Бит/(Пиксели*Кадры) : 0.121
Размер потока : 192 Мбайт (82%)
Аудио
Идентификатор : 0
Формат : Cooker
Идентификатор кодека : cook
Идентификатор кодека/Информация : Based on G.722.1, Real Player 6
Продолжительность : 1 ч. 20 м.
Битрейт : 64,1 Кбит/сек
Канал(ы) : 1 канал
Частота : 44,1 КГц
Битовая глубина : 16 бит
Размер потока : 36,8 Мбайт (16%)
Общее
Полное имя : Лекции летней школы «Современная Математика», г. Дубна\Ильяшенко Ю. С\Биллиарды на плоскости и в многомерном пространстве (1)\Биллиарды на плоскости и в многомерном пространстве (1).avi
Формат : AVI
Формат/Информация : Audio Video Interleave
Размер файла : 254 Мбайт
Продолжительность : 1 ч. 14 м.
Общий поток : 479 Кбит/сек
Видео
Идентификатор : 0
Формат : MPEG-4 Visual
Идентификатор кодека : DIV3
Идентификатор кодека/Подсказка : DivX 3 Low
Продолжительность : 1 ч. 14 м.
Битрейт : 153 Кбит/сек
Ширина : 352 пикс.
Высота : 288 пикс.
Соотношение сторон : 1,222
Частота кадров : 25,000 кадр/сек
Стандарт вещания : PAL
Цветовое пространство : YUV
Подвыборка цветности : 4:2:0
Битовая глубина : 8 бит
Метод сжатия : С потерями
Бит/(Пиксели*Кадры) : 0.060
Размер потока : 81,0 Мбайт (32%)
Аудио
Идентификатор : 1
Формат : MPEG Audio
Версия формата : Version 1
Профиль формата : Layer 3
Идентификатор кодека : 55
Идентификатор кодека/Подсказка : MP3
Продолжительность : 1 ч. 14 м.
Вид битрейта : Постоянный
Битрейт : 320 Кбит/сек
Канал(ы) : 2 канала(ов)
Частота : 44,1 КГц
Метод сжатия : С потерями
Задержка видео : 23 мс.
Размер потока : 170 Мбайт (67%)
Выравнивание : Разделение по промежуткам
Продолжительность промежутка : 1001 мс. (25,02 видеокадров)
Общее
Полное имя : Лекции летней школы «Современная Математика», г. Дубна\Ильяшенко Ю. С\Биллиарды на плоскости и в многомерном пространстве (2)\Биллиарды на плоскости и в многомерном пространстве (2).avi
Формат : AVI
Формат/Информация : Audio Video Interleave
Размер файла : 252 Мбайт
Продолжительность : 1 ч. 13 м.
Общий поток : 479 Кбит/сек
Видео
Идентификатор : 0
Формат : MPEG-4 Visual
Идентификатор кодека : DIV3
Идентификатор кодека/Подсказка : DivX 3 Low
Продолжительность : 1 ч. 13 м.
Битрейт : 153 Кбит/сек
Ширина : 352 пикс.
Высота : 288 пикс.
Соотношение сторон : 1,222
Частота кадров : 25,000 кадр/сек
Стандарт вещания : PAL
Цветовое пространство : YUV
Подвыборка цветности : 4:2:0
Битовая глубина : 8 бит
Метод сжатия : С потерями
Бит/(Пиксели*Кадры) : 0.060
Размер потока : 80,2 Мбайт (32%)
Аудио
Идентификатор : 1
Формат : MPEG Audio
Версия формата : Version 1
Профиль формата : Layer 3
Идентификатор кодека : 55
Идентификатор кодека/Подсказка : MP3
Продолжительность : 1 ч. 13 м.
Вид битрейта : Постоянный
Битрейт : 320 Кбит/сек
Канал(ы) : 2 канала(ов)
Частота : 44,1 КГц
Метод сжатия : С потерями
Задержка видео : 23 мс.
Размер потока : 168 Мбайт (67%)
Выравнивание : Разделение по промежуткам
Продолжительность промежутка : 1001 мс. (25,02 видеокадров)
Общее
Полное имя : Лекции летней школы «Современная Математика», г. Дубна\Ильяшенко Ю. С\Теория КАМ для начинающих. Лекция 1\2352.wmv
Формат : Windows Media
Размер файла : 524 Мбайт
Продолжительность : 1 ч. 14 м.
Режим общего битрейта : Переменный
Общий поток : 978 Кбит/сек
Максимальный общий битрейт : 1767 Кбит/сек
Дата кодирования : UTC 2010-10-15 05:10:25.271
Видео
Идентификатор : 2
Формат : VC-1
Профиль формата : MP@ML
Идентификатор кодека : WMV3
Идентификатор кодека/Информация : Windows Media Video 9
Идентификатор кодека/Подсказка : WMV3
Описание кодека : Windows Media Video 9
Продолжительность : 1 ч. 14 м.
Вид битрейта : Переменный
Битрейт : 872 Кбит/сек
Ширина : 720 пикс.
Высота : 576 пикс.
Соотношение сторон : 5:4
Частота кадров : 25,000 кадр/сек
Стандарт вещания : PAL
Битовая глубина : 8 бит
Тип развёртки : Прогрессивная
Метод сжатия : С потерями
Бит/(Пиксели*Кадры) : 0.084
Размер потока : 467 Мбайт (89%)
NumberOfFrames : 112376
Аудио
Идентификатор : 1
Формат : WMA
Версия формата : Version 2
Идентификатор кодека : 161
Идентификатор кодека/Информация : Windows Media Audio
Описание кодека : Windows Media Audio 9.2 - 96 kbps, 48 kHz, stereo 2-pass VBR
Продолжительность : 1 ч. 14 м.
Вид битрейта : Переменный
Битрейт : 95,9 Кбит/сек
Канал(ы) : 2 канала(ов)
Частота : 48,0 КГц
Битовая глубина : 16 бит
Размер потока : 51,4 Мбайт (10%)
Общее
Полное имя : Лекции летней школы «Современная Математика», г. Дубна\Кириллов А. А\Анализ и геометрия фракталов (1)\Анализ и геометрия фракталов (1).avi
Формат : AVI
Формат/Информация : Audio Video Interleave
Размер файла : 655 Мбайт
Продолжительность : 1 ч. 14 м.
Общий поток : 1226 Кбит/сек
Программа кодирования : VirtualDubMod 1.5.10.1 (build 2389/release)
Библиотека кодирования : VirtualDubMod build 2389/release
Видео
Идентификатор : 0
Формат : MPEG-4 Visual
Профиль формата : Simple@L3
Параметр BVOP формата : 1
Параметр QPel формата : Нет
Параметр GMC формата : Без точки перехода
Параметр матрицы формата : Default (H.263)
Режим смешивания : Сжатый битовый поток
Идентификатор кодека : XVID
Идентификатор кодека/Подсказка : XviD
Продолжительность : 1 ч. 14 м.
Битрейт : 1089 Кбит/сек
Ширина : 640 пикс.
Высота : 360 пикс.
Соотношение сторон : 16:9
Частота кадров : 25,000 кадр/сек
Цветовое пространство : YUV
Подвыборка цветности : 4:2:0
Битовая глубина : 8 бит
Тип развёртки : Прогрессивная
Метод сжатия : С потерями
Бит/(Пиксели*Кадры) : 0.189
Размер потока : 581 Мбайт (89%)
Библиотека кодирования : XviD 1.0.0 (UTC 2004-05-09)
Аудио
Идентификатор : 1
Формат : MPEG Audio
Версия формата : Version 1
Профиль формата : Layer 3
Режим : Joint stereo
Расширение режима : MS Stereo
Идентификатор кодека : 55
Идентификатор кодека/Подсказка : MP3
Продолжительность : 1 ч. 14 м.
Вид битрейта : Постоянный
Битрейт : 128 Кбит/сек
Канал(ы) : 2 канала(ов)
Частота : 44,1 КГц
Метод сжатия : С потерями
Размер потока : 68,3 Мбайт (10%)
Выравнивание : Разделение по промежуткам
Продолжительность промежутка : 40 мс. (1,00 видеокадр)
Время предзагрузки промежутка : 500 ms
Общее
Полное имя : Лекции летней школы «Современная Математика», г. Дубна\Кириллов А. А\Анализ и геометрия фракталов (2)\Анализ и геометрия фракталов (2).avi
Формат : AVI
Формат/Информация : Audio Video Interleave
Размер файла : 656 Мбайт
Продолжительность : 1 ч. 16 м.
Общий поток : 1202 Кбит/сек
Программа кодирования : VirtualDubMod 1.5.10.1 (build 2389/release)
Библиотека кодирования : VirtualDubMod build 2389/release
Видео
Идентификатор : 0
Формат : MPEG-4 Visual
Профиль формата : Simple@L3
Параметр BVOP формата : 1
Параметр QPel формата : Нет
Параметр GMC формата : Без точки перехода
Параметр матрицы формата : Default (H.263)
Режим смешивания : Сжатый битовый поток
Идентификатор кодека : XVID
Идентификатор кодека/Подсказка : XviD
Продолжительность : 1 ч. 16 м.
Битрейт : 1064 Кбит/сек
Ширина : 640 пикс.
Высота : 360 пикс.
Соотношение сторон : 16:9
Частота кадров : 25,000 кадр/сек
Цветовое пространство : YUV
Подвыборка цветности : 4:2:0
Битовая глубина : 8 бит
Тип развёртки : Прогрессивная
Метод сжатия : С потерями
Бит/(Пиксели*Кадры) : 0.185
Размер потока : 581 Мбайт (89%)
Библиотека кодирования : XviD 1.0.0 (UTC 2004-05-09)
Аудио
Идентификатор : 1
Формат : MPEG Audio
Версия формата : Version 1
Профиль формата : Layer 3
Режим : Joint stereo
Расширение режима : MS Stereo
Идентификатор кодека : 55
Идентификатор кодека/Подсказка : MP3
Продолжительность : 1 ч. 16 м.
Вид битрейта : Постоянный
Битрейт : 128 Кбит/сек
Канал(ы) : 2 канала(ов)
Частота : 44,1 КГц
Метод сжатия : С потерями
Размер потока : 69,9 Мбайт (11%)
Выравнивание : Разделение по промежуткам
Продолжительность промежутка : 40 мс. (1,00 видеокадр)
Время предзагрузки промежутка : 500 ms
Общее
Полное имя : Лекции летней школы «Современная Математика», г. Дубна\Кириллов А. А\Геометрия, анализ и арифметика фракталов\v134.rmvb
Формат : RealMedia
Размер файла : 231 Мбайт
Продолжительность : 1 ч. 19 м.
Общий поток : 400 Кбит/сек
Видео
Идентификатор : 1
Формат : RealVideo 4
Идентификатор кодека : RV40
Идентификатор кодека/Информация : Based on AVC (H.264), Real Player 9
Продолжительность : 1 ч. 19 м.
Битрейт : 334 Кбит/сек
Ширина : 384 пикс.
Высота : 288 пикс.
Соотношение сторон : 4:3
Частота кадров : 25,000 кадр/сек
Бит/(Пиксели*Кадры) : 0.121
Размер потока : 190 Мбайт (82%)
Аудио
Идентификатор : 0
Формат : Cooker
Идентификатор кодека : cook
Идентификатор кодека/Информация : Based on G.722.1, Real Player 6
Продолжительность : 1 ч. 19 м.
Битрейт : 64,1 Кбит/сек
Канал(ы) : 1 канал
Частота : 44,1 КГц
Битовая глубина : 16 бит
Размер потока : 36,6 Мбайт (16%)
Общее
Полное имя : Лекции летней школы «Современная Математика», г. Дубна\Кириллов А. А\Геометрия, анализ и арифметика фракталов\v134_e.pdf
Размер файла : 144 Кбайт
Общее
Полное имя : Лекции летней школы «Современная Математика», г. Дубна\Кириллов А. А\Геометрия, анализ и арифметика фракталов\v134_r.pdf
Размер файла : 1,49 Мбайт
Общее
Полное имя : Лекции летней школы «Современная Математика», г. Дубна\Кириллов А. А\Геометрия, анализ и арифметика фракталов. (1)\v161.rmvb
Формат : RealMedia
Размер файла : 226 Мбайт
Продолжительность : 1 ч. 17 м.
Общий поток : 400 Кбит/сек
Видео
Идентификатор : 1
Формат : RealVideo 4
Идентификатор кодека : RV40
Идентификатор кодека/Информация : Based on AVC (H.264), Real Player 9
Продолжительность : 1 ч. 17 м.
Битрейт : 334 Кбит/сек
Ширина : 384 пикс.
Высота : 288 пикс.
Соотношение сторон : 4:3
Частота кадров : 25,000 кадр/сек
Бит/(Пиксели*Кадры) : 0.121
Размер потока : 186 Мбайт (82%)
Аудио
Идентификатор : 0
Формат : Cooker
Идентификатор кодека : cook
Идентификатор кодека/Информация : Based on G.722.1, Real Player 6
Продолжительность : 1 ч. 17 м.
Битрейт : 64,1 Кбит/сек
Канал(ы) : 1 канал
Частота : 44,1 КГц
Битовая глубина : 16 бит
Размер потока : 35,7 Мбайт (16%)
Общее
Полное имя : Лекции летней школы «Современная Математика», г. Дубна\Кириллов А. А\Геометрия, анализ и арифметика фракталов. (2)\v162.rmvb
Формат : RealMedia
Размер файла : 230 Мбайт
Продолжительность : 1 ч. 19 м.
Общий поток : 400 Кбит/сек
Видео
Идентификатор : 1
Формат : RealVideo 4
Идентификатор кодека : RV40
Идентификатор кодека/Информация : Based on AVC (H.264), Real Player 9
Продолжительность : 1 ч. 19 м.
Битрейт : 334 Кбит/сек
Ширина : 384 пикс.
Высота : 288 пикс.
Соотношение сторон : 4:3
Частота кадров : 25,000 кадр/сек
Бит/(Пиксели*Кадры) : 0.121
Размер потока : 189 Мбайт (82%)
Аудио
Идентификатор : 0
Формат : Cooker
Идентификатор кодека : cook
Идентификатор кодека/Информация : Based on G.722.1, Real Player 6
Продолжительность : 1 ч. 19 м.
Битрейт : 64,1 Кбит/сек
Канал(ы) : 1 канал
Частота : 44,1 КГц
Битовая глубина : 16 бит
Размер потока : 36,3 Мбайт (16%)
Общее
Полное имя : Лекции летней школы «Современная Математика», г. Дубна\Кириллов А. А\Геометрия, анализ и арифметика фракталов. (3)\v163.rmvb
Формат : RealMedia
Размер файла : 223 Мбайт
Продолжительность : 1 ч. 16 м.
Общий поток : 400 Кбит/сек
Видео
Идентификатор : 1
Формат : RealVideo 4
Идентификатор кодека : RV40
Идентификатор кодека/Информация : Based on AVC (H.264), Real Player 9
Продолжительность : 1 ч. 16 м.
Битрейт : 334 Кбит/сек
Ширина : 384 пикс.
Высота : 288 пикс.
Соотношение сторон : 4:3
Частота кадров : 25,000 кадр/сек
Бит/(Пиксели*Кадры) : 0.121
Размер потока : 183 Мбайт (82%)
Аудио
Идентификатор : 0
Формат : Cooker
Идентификатор кодека : cook
Идентификатор кодека/Информация : Based on G.722.1, Real Player 6
Продолжительность : 1 ч. 16 м.
Битрейт : 64,1 Кбит/сек
Канал(ы) : 1 канал
Частота : 44,1 КГц
Битовая глубина : 16 бит
Размер потока : 35,2 Мбайт (16%)
Общее
Полное имя : Лекции летней школы «Современная Математика», г. Дубна\Кириллов А. А\Геометрия, анализ и арифметика фракталов. (4)\v164.rmvb
Формат : RealMedia
Размер файла : 237 Мбайт
Продолжительность : 1 ч. 21 м.
Общий поток : 400 Кбит/сек
Видео
Идентификатор : 1
Формат : RealVideo 4
Идентификатор кодека : RV40
Идентификатор кодека/Информация : Based on AVC (H.264), Real Player 9
Продолжительность : 1 ч. 21 м.
Битрейт : 334 Кбит/сек
Ширина : 384 пикс.
Высота : 288 пикс.
Соотношение сторон : 4:3
Частота кадров : 25,000 кадр/сек
Бит/(Пиксели*Кадры) : 0.121
Размер потока : 195 Мбайт (82%)
Аудио
Идентификатор : 0
Формат : Cooker
Идентификатор кодека : cook
Идентификатор кодека/Информация : Based on G.722.1, Real Player 6
Продолжительность : 1 ч. 21 м.
Битрейт : 64,1 Кбит/сек
Канал(ы) : 1 канал
Частота : 44,1 КГц
Битовая глубина : 16 бит
Размер потока : 37,4 Мбайт (16%)
Общее
Полное имя : Лекции летней школы «Современная Математика», г. Дубна\Клепцын В. А\Намагничивание решетки. Фазовые переходы и уравнение Шрама–Левнера. (1)\kleptsyn.pdf
Размер файла : 124 Кбайт
Общее
Полное имя : Лекции летней школы «Современная Математика», г. Дубна\Клепцын В. А\Намагничивание решетки. Фазовые переходы и уравнение Шрама–Левнера. (1)\v156.rmvb
Формат : RealMedia
Размер файла : 220 Мбайт
Продолжительность : 1 ч. 15 м.
Общий поток : 400 Кбит/сек
Видео
Идентификатор : 1
Формат : RealVideo 4
Идентификатор кодека : RV40
Идентификатор кодека/Информация : Based on AVC (H.264), Real Player 9
Продолжительность : 1 ч. 15 м.
Битрейт : 334 Кбит/сек
Ширина : 384 пикс.
Высота : 288 пикс.
Соотношение сторон : 4:3
Частота кадров : 25,000 кадр/сек
Бит/(Пиксели*Кадры) : 0.121
Размер потока : 181 Мбайт (82%)
Аудио
Идентификатор : 0
Формат : Cooker
Идентификатор кодека : cook
Идентификатор кодека/Информация : Based on G.722.1, Real Player 6
Продолжительность : 1 ч. 15 м.
Битрейт : 64,1 Кбит/сек
Канал(ы) : 1 канал
Частота : 44,1 КГц
Битовая глубина : 16 бит
Размер потока : 34,8 Мбайт (16%)
Общее
Полное имя : Лекции летней школы «Современная Математика», г. Дубна\Клепцын В. А\Намагничивание решетки. Фазовые переходы и уравнение Шрама–Левнера. (2)\v157.rmvb
Формат : RealMedia
Размер файла : 216 Мбайт
Продолжительность : 1 ч. 14 м.
Общий поток : 400 Кбит/сек
Видео
Идентификатор : 1
Формат : RealVideo 4
Идентификатор кодека : RV40
Идентификатор кодека/Информация : Based on AVC (H.264), Real Player 9
Продолжительность : 1 ч. 14 м.
Битрейт : 334 Кбит/сек
Ширина : 384 пикс.
Высота : 288 пикс.
Соотношение сторон : 4:3
Частота кадров : 25,000 кадр/сек
Бит/(Пиксели*Кадры) : 0.121
Размер потока : 178 Мбайт (82%)
Аудио
Идентификатор : 0
Формат : Cooker
Идентификатор кодека : cook
Идентификатор кодека/Информация : Based on G.722.1, Real Player 6
Продолжительность : 1 ч. 14 м.
Битрейт : 64,1 Кбит/сек
Канал(ы) : 1 канал
Частота : 44,1 КГц
Битовая глубина : 16 бит
Размер потока : 34,2 Мбайт (16%)
Общее
Полное имя : Лекции летней школы «Современная Математика», г. Дубна\Клепцын В. А\Намагничивание решетки. Фазовые переходы и уравнение Шрама–Левнера. (3)\v158.rmvb
Формат : RealMedia
Размер файла : 223 Мбайт
Продолжительность : 1 ч. 16 м.
Общий поток : 400 Кбит/сек
Видео
Идентификатор : 1
Формат : RealVideo 4
Идентификатор кодека : RV40
Идентификатор кодека/Информация : Based on AVC (H.264), Real Player 9
Продолжительность : 1 ч. 16 м.
Битрейт : 334 Кбит/сек
Ширина : 384 пикс.
Высота : 288 пикс.
Соотношение сторон : 4:3
Частота кадров : 25,000 кадр/сек
Бит/(Пиксели*Кадры) : 0.121
Размер потока : 183 Мбайт (82%)
Аудио
Идентификатор : 0
Формат : Cooker
Идентификатор кодека : cook
Идентификатор кодека/Информация : Based on G.722.1, Real Player 6
Продолжительность : 1 ч. 16 м.
Битрейт : 64,1 Кбит/сек
Канал(ы) : 1 канал
Частота : 44,1 КГц
Битовая глубина : 16 бит
Размер потока : 35,2 Мбайт (16%)
Общее
Полное имя : Лекции летней школы «Современная Математика», г. Дубна\Клепцын В. А\Намагничивание решетки. Фазовые переходы и уравнение Шрама–Левнера. (4)\v159.rmvb
Формат : RealMedia
Размер файла : 218 Мбайт
Продолжительность : 1 ч. 14 м.
Общий поток : 400 Кбит/сек
Видео
Идентификатор : 1
Формат : RealVideo 4
Идентификатор кодека : RV40
Идентификатор кодека/Информация : Based on AVC (H.264), Real Player 9
Продолжительность : 1 ч. 14 м.
Битрейт : 334 Кбит/сек
Ширина : 384 пикс.
Высота : 288 пикс.
Соотношение сторон : 4:3
Частота кадров : 25,000 кадр/сек
Бит/(Пиксели*Кадры) : 0.121
Размер потока : 179 Мбайт (82%)
Аудио
Идентификатор : 0
Формат : Cooker
Идентификатор кодека : cook
Идентификатор кодека/Информация : Based on G.722.1, Real Player 6
Продолжительность : 1 ч. 15 м.
Битрейт : 64,1 Кбит/сек
Канал(ы) : 1 канал
Частота : 44,1 КГц
Битовая глубина : 16 бит
Размер потока : 34,4 Мбайт (16%)
Общее
Полное имя : Лекции летней школы «Современная Математика», г. Дубна\Клепцын В. А\Решётки и упаковки шаров в многомерных пространствах. Лекция 1\2047.wmv
Формат : Windows Media
Размер файла : 506 Мбайт
Продолжительность : 1 ч. 12 м.
Режим общего битрейта : Переменный
Общий поток : 978 Кбит/сек
Максимальный общий битрейт : 1437 Кбит/сек
Дата кодирования : UTC 2010-10-04 09:18:52.618
Видео
Идентификатор : 2
Формат : VC-1
Профиль формата : MP@ML
Идентификатор кодека : WMV3
Идентификатор кодека/Информация : Windows Media Video 9
Идентификатор кодека/Подсказка : WMV3
Описание кодека : Windows Media Video 9
Продолжительность : 1 ч. 12 м.
Вид битрейта : Переменный
Битрейт : 872 Кбит/сек
Ширина : 720 пикс.
Высота : 576 пикс.
Соотношение сторон : 5:4
Частота кадров : 25,000 кадр/сек
Стандарт вещания : PAL
Битовая глубина : 8 бит
Тип развёртки : Прогрессивная
Метод сжатия : С потерями
Бит/(Пиксели*Кадры) : 0.084
Размер потока : 451 Мбайт (89%)
NumberOfFrames : 108439
Аудио
Идентификатор : 1
Формат : WMA
Версия формата : Version 2
Идентификатор кодека : 161
Идентификатор кодека/Информация : Windows Media Audio
Описание кодека : Windows Media Audio 9.2 - 96 kbps, 48 kHz, stereo 2-pass VBR
Продолжительность : 1 ч. 12 м.
Вид битрейта : Переменный
Битрейт : 95,9 Кбит/сек
Канал(ы) : 2 канала(ов)
Частота : 48,0 КГц
Битовая глубина : 16 бит
Размер потока : 49,6 Мбайт (10%)
Общее
Полное имя : Лекции летней школы «Современная Математика», г. Дубна\Кричевер И. М\Алгебраическая геометрия и нелинейные уравнения матфизики\2029.wmv
Формат : Windows Media
Размер файла : 562 Мбайт
Продолжительность : 1 ч. 20 м.
Режим общего битрейта : Переменный
Общий поток : 978 Кбит/сек
Максимальный общий битрейт : 1303 Кбит/сек
Дата кодирования : UTC 2010-10-01 21:40:19.429
Видео
Идентификатор : 2
Формат : VC-1
Профиль формата : MP@ML
Идентификатор кодека : WMV3
Идентификатор кодека/Информация : Windows Media Video 9
Идентификатор кодека/Подсказка : WMV3
Описание кодека : Windows Media Video 9
Продолжительность : 1 ч. 20 м.
Вид битрейта : Переменный
Битрейт : 872 Кбит/сек
Ширина : 720 пикс.
Высота : 576 пикс.
Соотношение сторон : 5:4
Частота кадров : 25,000 кадр/сек
Стандарт вещания : PAL
Битовая глубина : 8 бит
Тип развёртки : Прогрессивная
Метод сжатия : С потерями
Бит/(Пиксели*Кадры) : 0.084
Размер потока : 501 Мбайт (89%)
NumberOfFrames : 120465
Аудио
Идентификатор : 1
Формат : WMA
Версия формата : Version 2
Идентификатор кодека : 161
Идентификатор кодека/Информация : Windows Media Audio
Описание кодека : Windows Media Audio 9.2 - 96 kbps, 48 kHz, stereo 2-pass VBR
Продолжительность : 1 ч. 20 м.
Вид битрейта : Переменный
Битрейт : 95,9 Кбит/сек
Канал(ы) : 2 канала(ов)
Частота : 48,0 КГц
Битовая глубина : 16 бит
Размер потока : 55,1 Мбайт (10%)
Общее
Полное имя : Лекции летней школы «Современная Математика», г. Дубна\Кузнецов А. Г\Исчислительная геометрия на проективной плоскости. Лекция 1\374.rmvb
Формат : RealMedia
Размер файла : 231 Мбайт
Продолжительность : 1 ч. 19 м.
Общий поток : 400 Кбит/сек
Видео
Идентификатор : 1
Формат : RealVideo 4
Идентификатор кодека : RV40
Идентификатор кодека/Информация : Based on AVC (H.264), Real Player 9
Продолжительность : 1 ч. 19 м.
Битрейт : 334 Кбит/сек
Ширина : 384 пикс.
Высота : 288 пикс.
Соотношение сторон : 4:3
Частота кадров

Постеры

Соцсети

 

Статистика

Автор: asder
Добавлен: 20 июн 2012, 01:41
Размер: 40.52 ГБ
Размер: 43 512 742 691 байт
Сидеров: 3
Личеров: 2
Скачали: 0
Здоровье: 100%
Раздающих: 100%
Скорость скачивания: 0 байт/сек
Скорость раздачи: 0 байт/сек
Последний сидер: 1 год 3 месяца 30 дней 13 часов 16 минут 40 секунд назад
Последний личер: 1 год 3 месяца 30 дней 13 часов 16 минут 40 секунд назад
Приватный: Нет (DHT включён)
Школьникам, студентам и педагогам Скачать торрент
Скачать торрент
[ Размер 227.9 КБ / Просмотров 3 ]

Поделиться



  • Похожие торренты
    Ответы
    Просмотры
    Последнее сообщение

Вернуться в Школьникам, студентам и педагогам