Видео


Сообщение

Видео Видеозаписи лекций НМУ и НОЦ МИАН, часть III, [весна 2012, математика, теория, анализ, топология, оператор, мера, диффузия, введение, числа, вербицкий, геометрия, матан, CAMRip, RUS] (Видеоурок)

Сообщение Таточка » 21 июн 2012, 09:41

Видеозаписи лекций НМУ и НОЦ МИАН, часть III
Страна: Россия
Тематика: математика, теория, анализ, топология, оператор, мера, диффузия, введение, числа, вербицкий, геометрия, матан
Тип раздаваемого материала: Видеоурок
Продолжительность: более 1000 часов
Год выпуска: весна 2012
Язык: Русский
Перевод: Не требуется
Описание: Видеозаписи лекций НМУ и НОЦ МИАН. Скачаны с этого сайта. Видеозаписи лекций НМУ и НОЦ МИАН, часть I
Качество: CAMRip
Формат: MP4
Видео кодек: XviD
Аудио кодек: MP3
Видео: avi, mp4, mkv, wmv
Отчет MediaInfo о файлах и скрины взяты из этой раздачи от CrankySpirit. За что ему отдельное спасибо.
Отчет MediaInfo о файлах
Общее
Полное имя : Введение в алгебраическую теорию чисел, А. Зыкин\Осень 2010\01.avi
Формат : AVI
Формат/Информация : Audio Video Interleave
Размер файла : 985 Мбайт
Продолжительность : 1 ч. 47 м.
Общий поток : 1279 Кбит/сек
Видео
Идентификатор : 0
Формат : MPEG-4 Visual
Профиль формата : Simple@L1
Параметр BVOP формата : Нет
Параметр QPel формата : Нет
Параметр GMC формата : Без точки перехода
Параметр матрицы формата : Default (H.263)
Идентификатор кодека : XVID
Идентификатор кодека/Подсказка : XviD
Продолжительность : 1 ч. 47 м.
Битрейт : 1079 Кбит/сек
Ширина : 1280 пикс.
Высота : 720 пикс.
Соотношение сторон : 16:9
Частота кадров : 29,970 кадр/сек
Цветовое пространство : YUV
Подвыборка цветности : 4:2:0
Битовая глубина : 8 бит
Тип развёртки : Прогрессивная
Метод сжатия : С потерями
Бит/(Пиксели*Кадры) : 0.039
Размер потока : 832 Мбайт (84%)
Библиотека кодирования : Lavc52.34.0
Аудио
Идентификатор : 1
Формат : AC-3
Формат/Информация : Audio Coding 3
Идентификатор кодека : 2000
Продолжительность : 1 ч. 47 м.
Вид битрейта : Постоянный
Битрейт : 192 Кбит/сек
Канал(ы) : 2 канала(ов)
Частота : 44,1 КГц
Метод сжатия : С потерями
Размер потока : 148 Мбайт (15%)
Выравнивание : Разделение по промежуткам
Продолжительность промежутка : 968 мс. (29,00 видеокадров)
Общее
Полное имя :Введение в алгебраическую теорию чисел, А. Зыкин\Осень 2010\02.avi
Формат : AVI
Формат/Информация : Audio Video Interleave
Размер файла : 794 Мбайт
Продолжительность : 1 ч. 26 м.
Общий поток : 1279 Кбит/сек
Видео
Идентификатор : 0
Формат : MPEG-4 Visual
Профиль формата : Simple@L1
Параметр BVOP формата : Нет
Параметр QPel формата : Нет
Параметр GMC формата : Без точки перехода
Параметр матрицы формата : Default (H.263)
Идентификатор кодека : XVID
Идентификатор кодека/Подсказка : XviD
Продолжительность : 1 ч. 26 м.
Битрейт : 1079 Кбит/сек
Ширина : 1280 пикс.
Высота : 720 пикс.
Соотношение сторон : 16:9
Частота кадров : 29,970 кадр/сек
Цветовое пространство : YUV
Подвыборка цветности : 4:2:0
Битовая глубина : 8 бит
Тип развёртки : Прогрессивная
Метод сжатия : С потерями
Бит/(Пиксели*Кадры) : 0.039
Размер потока : 670 Мбайт (84%)
Библиотека кодирования : Lavc52.34.0
Аудио
Идентификатор : 1
Формат : AC-3
Формат/Информация : Audio Coding 3
Расширение режима : CM (complete main)
Идентификатор кодека : 2000
Продолжительность : 1 ч. 26 м.
Вид битрейта : Постоянный
Битрейт : 192 Кбит/сек
Канал(ы) : 2 канала(ов)
Расположение каналов : Front: L R
Частота : 44,1 КГц
Битовая глубина : 16 бит
Метод сжатия : С потерями
Задержка видео : 22 с.
Размер потока : 119 Мбайт (15%)
Выравнивание : Разделение по промежуткам
Продолжительность промежутка : 968 мс. (29,00 видеокадров)
Общее
Полное имя :Введение в алгебраическую теорию чисел, А. Зыкин\Осень 2010\03.avi
Формат : AVI
Формат/Информация : Audio Video Interleave
Размер файла : 982 Мбайт
Продолжительность : 1 ч. 47 м.
Общий поток : 1279 Кбит/сек
Видео
Идентификатор : 0
Формат : MPEG-4 Visual
Профиль формата : Simple@L1
Параметр BVOP формата : Нет
Параметр QPel формата : Нет
Параметр GMC формата : Без точки перехода
Параметр матрицы формата : Default (H.263)
Идентификатор кодека : XVID
Идентификатор кодека/Подсказка : XviD
Продолжительность : 1 ч. 47 м.
Битрейт : 1079 Кбит/сек
Ширина : 1280 пикс.
Высота : 720 пикс.
Соотношение сторон : 16:9
Частота кадров : 29,970 кадр/сек
Цветовое пространство : YUV
Подвыборка цветности : 4:2:0
Битовая глубина : 8 бит
Тип развёртки : Прогрессивная
Метод сжатия : С потерями
Бит/(Пиксели*Кадры) : 0.039
Размер потока : 828 Мбайт (84%)
Библиотека кодирования : Lavc52.34.0
Аудио
Идентификатор : 1
Формат : AC-3
Формат/Информация : Audio Coding 3
Расширение режима : CM (complete main)
Идентификатор кодека : 2000
Продолжительность : 1 ч. 47 м.
Вид битрейта : Постоянный
Битрейт : 192 Кбит/сек
Канал(ы) : 2 канала(ов)
Расположение каналов : Front: L R
Частота : 44,1 КГц
Битовая глубина : 16 бит
Метод сжатия : С потерями
Задержка видео : 18 с.
Размер потока : 147 Мбайт (15%)
Выравнивание : Разделение по промежуткам
Продолжительность промежутка : 968 мс. (29,00 видеокадров)
Общее
Уникальный идентификатор : 182145767645275144132044872000978489939 (0x8907FFB25968249BA7051260A33F1253)
Полное имя :Введение в алгебраическую теорию чисел, А. Зыкин\Осень 2010\04.mkv
Формат : Matroska
Размер файла : 789 Мбайт
Продолжительность : 1 ч. 36 м.
Общий поток : 1142 Кбит/сек
Дата кодирования : UTC 2010-09-30 10:27:54
Программа кодирования : mkvmerge v4.3.0 ('Escape from the Island') збірка від Sep 5 2010 10:30:51
Библиотека кодирования : libebml v1.0.0 + libmatroska v1.0.0
Видео
Идентификатор : 1
Формат : AVC
Формат/Информация : Advanced Video Codec
Профиль формата : Main@L3.2
Параметр CABAC формата : Да
Параметр ReFrames формата : 2 кадры
Режим смешивания : Header stripping
Идентификатор кодека : V_MPEG4/ISO/AVC
Продолжительность : 1 ч. 36 м.
Ширина : 1280 пикс.
Высота : 720 пикс.
Соотношение сторон : 16:9
Частота кадров : 50,000 кадр/сек
Цветовое пространство : YUV
Подвыборка цветности : 4:2:0
Битовая глубина : 8 бит
Тип развёртки : Прогрессивная
Язык : English
Аудио
Идентификатор : 2
Формат : AAC
Формат/Информация : Advanced Audio Codec
Профиль формата : LC
Идентификатор кодека : A_AAC
Продолжительность : 1 ч. 36 м.
Канал(ы) : 2 канала(ов)
Расположение каналов : Front: L R
Частота : 48,0 КГц
Метод сжатия : С потерями
Язык : English
Общее
Уникальный идентификатор : 231397942269248693316592599319965563356 (0xAE159F6346DB44D6B255B4749F3F79DC)
Полное имя :Введение в алгебраическую теорию чисел, А. Зыкин\Осень 2010\05.mkv
Формат : Matroska
Размер файла : 819 Мбайт
Продолжительность : 1 ч. 40 м.
Общий поток : 1140 Кбит/сек
Дата кодирования : UTC 2010-10-07 11:20:44
Программа кодирования : mkvmerge v4.3.0 ('Escape from the Island') збірка від Sep 5 2010 10:30:51
Библиотека кодирования : libebml v1.0.0 + libmatroska v1.0.0
Видео
Идентификатор : 1
Формат : AVC
Формат/Информация : Advanced Video Codec
Профиль формата : Main@L3.2
Параметр CABAC формата : Да
Параметр ReFrames формата : 2 кадры
Режим смешивания : Header stripping
Идентификатор кодека : V_MPEG4/ISO/AVC
Продолжительность : 1 ч. 40 м.
Ширина : 1280 пикс.
Высота : 720 пикс.
Соотношение сторон : 16:9
Частота кадров : 50,000 кадр/сек
Цветовое пространство : YUV
Подвыборка цветности : 4:2:0
Битовая глубина : 8 бит
Тип развёртки : Прогрессивная
Язык : English
Аудио
Идентификатор : 2
Формат : AAC
Формат/Информация : Advanced Audio Codec
Профиль формата : LC
Идентификатор кодека : A_AAC
Продолжительность : 1 ч. 40 м.
Канал(ы) : 2 канала(ов)
Расположение каналов : Front: L R
Частота : 48,0 КГц
Метод сжатия : С потерями
Язык : English
Общее
Уникальный идентификатор : 202129578692755806332252135622110113740 (0x9810BDA6B64F28A5858264FEA3886FCC)
Полное имя :Введение в алгебраическую теорию чисел, А. Зыкин\Осень 2010\06.mkv
Формат : Matroska
Размер файла : 793 Мбайт
Продолжительность : 1 ч. 36 м.
Общий поток : 1144 Кбит/сек
Дата кодирования : UTC 2010-10-14 22:38:33
Программа кодирования : mkvmerge v4.3.0 ('Escape from the Island') збірка від Sep 5 2010 10:30:51
Библиотека кодирования : libebml v1.0.0 + libmatroska v1.0.0
Видео
Идентификатор : 1
Формат : AVC
Формат/Информация : Advanced Video Codec
Профиль формата : Main@L3.2
Параметр CABAC формата : Да
Параметр ReFrames формата : 2 кадры
Режим смешивания : Header stripping
Идентификатор кодека : V_MPEG4/ISO/AVC
Продолжительность : 1 ч. 36 м.
Ширина : 1280 пикс.
Высота : 720 пикс.
Соотношение сторон : 16:9
Частота кадров : 50,000 кадр/сек
Цветовое пространство : YUV
Подвыборка цветности : 4:2:0
Битовая глубина : 8 бит
Тип развёртки : Прогрессивная
Язык : English
Аудио
Идентификатор : 2
Формат : AAC
Формат/Информация : Advanced Audio Codec
Профиль формата : LC
Идентификатор кодека : A_AAC
Продолжительность : 1 ч. 36 м.
Канал(ы) : 2 канала(ов)
Расположение каналов : Front: L R
Частота : 48,0 КГц
Метод сжатия : С потерями
Язык : English
Общее
Уникальный идентификатор : 201411380317936462360435091138055026236 (0x97866BBCCA6D813EA7AC8D65D210B63C)
Полное имя :Введение в алгебраическую теорию чисел, А. Зыкин\Осень 2010\07.mkv
Формат : Matroska
Размер файла : 802 Мбайт
Продолжительность : 1 ч. 38 м.
Общий поток : 1139 Кбит/сек
Дата кодирования : UTC 2010-10-21 09:38:02
Программа кодирования : mkvmerge v4.3.0 ('Escape from the Island') збірка від Sep 5 2010 10:30:51
Библиотека кодирования : libebml v1.0.0 + libmatroska v1.0.0
Видео
Идентификатор : 1
Формат : AVC
Формат/Информация : Advanced Video Codec
Профиль формата : Main@L3.2
Параметр CABAC формата : Да
Параметр ReFrames формата : 2 кадры
Режим смешивания : Header stripping
Идентификатор кодека : V_MPEG4/ISO/AVC
Продолжительность : 1 ч. 38 м.
Ширина : 1280 пикс.
Высота : 720 пикс.
Соотношение сторон : 16:9
Частота кадров : 50,000 кадр/сек
Цветовое пространство : YUV
Подвыборка цветности : 4:2:0
Битовая глубина : 8 бит
Тип развёртки : Прогрессивная
Язык : English
Аудио
Идентификатор : 2
Формат : AAC
Формат/Информация : Advanced Audio Codec
Профиль формата : LC
Идентификатор кодека : A_AAC
Продолжительность : 1 ч. 38 м.
Канал(ы) : 2 канала(ов)
Расположение каналов : Front: L R
Частота : 48,0 КГц
Метод сжатия : С потерями
Язык : English
Общее
Полное имя :Введение в алгебраическую теорию чисел, А. Зыкин\Осень 2010\08.mp4
Формат : MPEG-4
Профиль формата : Base Media
Идентификатор кодека : isom
Размер файла : 805 Мбайт
Продолжительность : 1 ч. 38 м.
Общий поток : 1147 Кбит/сек
Дата кодирования : UTC 2010-10-27 23:42:02
Дата пометки : UTC 2010-10-27 23:42:02
Видео
Идентификатор : 1
Формат : AVC
Формат/Информация : Advanced Video Codec
Профиль формата : Main@L3.2
Параметр CABAC формата : Да
Параметр ReFrames формата : 2 кадры
Идентификатор кодека : avc1
Идентификатор кодека/Информация : Advanced Video Coding
Продолжительность : 1 ч. 38 м.
Вид битрейта : Переменный
Битрейт : 1015 Кбит/сек
Ширина : 1280 пикс.
Высота : 720 пикс.
Соотношение сторон : 16:9
Режим частоты кадров : Постоянный
Частота кадров : 50,000 кадр/сек
Цветовое пространство : YUV
Подвыборка цветности : 4:2:0
Битовая глубина : 8 бит
Тип развёртки : Прогрессивная
Бит/(Пиксели*Кадры) : 0.022
Размер потока : 712 Мбайт (88%)
Язык : English
Дата пометки : UTC 2010-10-27 23:43:00
Аудио
Идентификатор : 2
Формат : AAC
Формат/Информация : Advanced Audio Codec
Профиль формата : LC
Идентификатор кодека : 40
Продолжительность : 1 ч. 38 м.
Вид битрейта : Переменный
Битрейт : 128 Кбит/сек
Канал(ы) : 2 канала(ов)
Расположение каналов : Front: L R
Частота : 48,0 КГц
Метод сжатия : С потерями
Размер потока : 89,7 Мбайт (11%)
Язык : English
Дата пометки : UTC 2010-10-27 23:43:00
Общее
Полное имя :Введение в алгебраическую теорию чисел, А. Зыкин\Осень 2010\09.mp4
Формат : MPEG-4
Профиль формата : Base Media
Идентификатор кодека : isom
Размер файла : 829 Мбайт
Продолжительность : 1 ч. 42 м.
Общий поток : 1136 Кбит/сек
Дата кодирования : UTC 2010-11-04 11:56:18
Дата пометки : UTC 2010-11-04 11:56:18
Видео
Идентификатор : 1
Формат : AVC
Формат/Информация : Advanced Video Codec
Профиль формата : Main@L3.2
Параметр CABAC формата : Да
Параметр ReFrames формата : 2 кадры
Идентификатор кодека : avc1
Идентификатор кодека/Информация : Advanced Video Coding
Продолжительность : 1 ч. 42 м.
Вид битрейта : Переменный
Битрейт : 1003 Кбит/сек
Ширина : 1280 пикс.
Высота : 720 пикс.
Соотношение сторон : 16:9
Режим частоты кадров : Постоянный
Частота кадров : 50,000 кадр/сек
Цветовое пространство : YUV
Подвыборка цветности : 4:2:0
Битовая глубина : 8 бит
Тип развёртки : Прогрессивная
Бит/(Пиксели*Кадры) : 0.022
Размер потока : 732 Мбайт (88%)
Язык : English
Дата пометки : UTC 2010-11-04 11:56:53
Аудио
Идентификатор : 2
Формат : AAC
Формат/Информация : Advanced Audio Codec
Профиль формата : LC
Идентификатор кодека : 40
Продолжительность : 1 ч. 42 м.
Вид битрейта : Переменный
Битрейт : 128 Кбит/сек
Канал(ы) : 2 канала(ов)
Расположение каналов : Front: L R
Частота : 48,0 КГц
Метод сжатия : С потерями
Размер потока : 93,4 Мбайт (11%)
Язык : English
Дата пометки : UTC 2010-11-04 11:56:53
Общее
Полное имя :Введение в алгебраическую теорию чисел, А. Зыкин\Осень 2010\10.mp4
Формат : MPEG-4
Профиль формата : Base Media
Идентификатор кодека : isom
Размер файла : 866 Мбайт
Продолжительность : 1 ч. 45 м.
Общий поток : 1150 Кбит/сек
Дата кодирования : UTC 2010-11-12 00:42:37
Дата пометки : UTC 2010-11-12 00:42:37
Видео
Идентификатор : 1
Формат : AVC
Формат/Информация : Advanced Video Codec
Профиль формата : Main@L3.2
Параметр CABAC формата : Да
Параметр ReFrames формата : 2 кадры
Идентификатор кодека : avc1
Идентификатор кодека/Информация : Advanced Video Coding
Продолжительность : 1 ч. 45 м.
Вид битрейта : Переменный
Битрейт : 1017 Кбит/сек
Ширина : 1280 пикс.
Высота : 720 пикс.
Соотношение сторон : 16:9
Режим частоты кадров : Постоянный
Частота кадров : 50,000 кадр/сек
Цветовое пространство : YUV
Подвыборка цветности : 4:2:0
Битовая глубина : 8 бит
Тип развёртки : Прогрессивная
Бит/(Пиксели*Кадры) : 0.022
Размер потока : 766 Мбайт (88%)
Язык : English
Дата пометки : UTC 2010-11-12 00:43:17
Аудио
Идентификатор : 2
Формат : AAC
Формат/Информация : Advanced Audio Codec
Профиль формата : LC
Идентификатор кодека : 40
Продолжительность : 1 ч. 45 м.
Вид битрейта : Переменный
Битрейт : 128 Кбит/сек
Канал(ы) : 2 канала(ов)
Расположение каналов : Front: L R
Частота : 48,0 КГц
Метод сжатия : С потерями
Размер потока : 96,3 Мбайт (11%)
Язык : English
Дата пометки : UTC 2010-11-12 00:43:17
Общее
Полное имя :Введение в алгебраическую теорию чисел, А. Зыкин\Осень 2010\11.mp4
Формат : MPEG-4
Профиль формата : Base Media
Идентификатор кодека : isom
Размер файла : 791 Мбайт
Продолжительность : 1 ч. 38 м.
Общий поток : 1124 Кбит/сек
Дата кодирования : UTC 2010-11-23 07:07:21
Дата пометки : UTC 2010-11-23 07:07:21
Видео
Идентификатор : 1
Формат : AVC
Формат/Информация : Advanced Video Codec
Профиль формата : Main@L3.2
Параметр CABAC формата : Да
Параметр ReFrames формата : 2 кадры
Идентификатор кодека : avc1
Идентификатор кодека/Информация : Advanced Video Coding
Продолжительность : 1 ч. 38 м.
Вид битрейта : Переменный
Битрейт : 991 Кбит/сек
Ширина : 1280 пикс.
Высота : 720 пикс.
Соотношение сторон : 16:9
Режим частоты кадров : Постоянный
Частота кадров : 50,000 кадр/сек
Цветовое пространство : YUV
Подвыборка цветности : 4:2:0
Битовая глубина : 8 бит
Тип развёртки : Прогрессивная
Бит/(Пиксели*Кадры) : 0.022
Размер потока : 698 Мбайт (88%)
Язык : English
Дата пометки : UTC 2010-11-23 07:10:43
Аудио
Идентификатор : 2
Формат : AAC
Формат/Информация : Advanced Audio Codec
Профиль формата : LC
Идентификатор кодека : 40
Продолжительность : 1 ч. 38 м.
Вид битрейта : Переменный
Битрейт : 128 Кбит/сек
Канал(ы) : 2 канала(ов)
Расположение каналов : Front: L R
Частота : 48,0 КГц
Метод сжатия : С потерями
Размер потока : 90,1 Мбайт (11%)
Язык : English
Дата пометки : UTC 2010-11-23 07:10:43
Общее
Полное имя :Введение в алгебраическую теорию чисел, А. Зыкин\Осень 2010\12.mp4
Формат : MPEG-4
Профиль формата : Base Media
Идентификатор кодека : isom
Размер файла : 374 Мбайт
Продолжительность : 1 ч. 21 м.
Общий поток : 639 Кбит/сек
Дата кодирования : UTC 2010-12-09 01:41:21
Дата пометки : UTC 2010-12-09 01:41:21
Видео
Идентификатор : 1
Формат : AVC
Формат/Информация : Advanced Video Codec
Профиль формата : Main@L4.2
Параметр CABAC формата : Да
Параметр ReFrames формата : 2 кадры
Идентификатор кодека : avc1
Идентификатор кодека/Информация : Advanced Video Coding
Продолжительность : 1 ч. 21 м.
Вид битрейта : Переменный
Битрейт : 508 Кбит/сек
Ширина : 1920 пикс.
Высота : 1080 пикс.
Соотношение сторон : 16:9
Режим частоты кадров : Постоянный
Частота кадров : 25,000 кадр/сек
Частота кадров в оригинале : 50,000 кадр/сек
Цветовое пространство : YUV
Подвыборка цветности : 4:2:0
Битовая глубина : 8 бит
Тип развёртки : Прогрессивная
Бит/(Пиксели*Кадры) : 0.010
Размер потока : 297 Мбайт (79%)
Язык : English
Дата пометки : UTC 2010-12-09 01:41:41
Аудио
Идентификатор : 2
Формат : AAC
Формат/Информация : Advanced Audio Codec
Профиль формата : LC
Идентификатор кодека : 40
Продолжительность : 1 ч. 21 м.
Вид битрейта : Переменный
Битрейт : 128 Кбит/сек
Канал(ы) : 2 канала(ов)
Расположение каналов : Front: L R
Частота : 48,0 КГц
Метод сжатия : С потерями
Размер потока : 74,8 Мбайт (20%)
Язык : English
Дата пометки : UTC 2010-12-09 01:41:41
Общее
Полное имя :Введение в алгебраическую теорию чисел, А. Зыкин\Осень 2010\13.mp4
Формат : MPEG-4
Профиль формата : Base Media
Идентификатор кодека : isom
Размер файла : 489 Мбайт
Продолжительность : 1 ч. 47 м.
Общий поток : 634 Кбит/сек
Дата кодирования : UTC 2010-12-09 01:46:12
Дата пометки : UTC 2010-12-09 01:46:12
Видео
Идентификатор : 1
Формат : AVC
Формат/Информация : Advanced Video Codec
Профиль формата : Main@L4.2
Параметр CABAC формата : Да
Параметр ReFrames формата : 2 кадры
Идентификатор кодека : avc1
Идентификатор кодека/Информация : Advanced Video Coding
Продолжительность : 1 ч. 47 м.
Вид битрейта : Переменный
Битрейт : 503 Кбит/сек
Ширина : 1920 пикс.
Высота : 1080 пикс.
Соотношение сторон : 16:9
Режим частоты кадров : Постоянный
Частота кадров : 25,000 кадр/сек
Частота кадров в оригинале : 50,000 кадр/сек
Цветовое пространство : YUV
Подвыборка цветности : 4:2:0
Битовая глубина : 8 бит
Тип развёртки : Прогрессивная
Бит/(Пиксели*Кадры) : 0.010
Размер потока : 388 Мбайт (79%)
Язык : English
Дата пометки : UTC 2010-12-09 01:46:38
Аудио
Идентификатор : 2
Формат : AAC
Формат/Информация : Advanced Audio Codec
Профиль формата : LC
Идентификатор кодека : 40
Продолжительность : 1 ч. 47 м.
Вид битрейта : Переменный
Битрейт : 128 Кбит/сек
Канал(ы) : 2 канала(ов)
Расположение каналов : Front: L R
Частота : 48,0 КГц
Метод сжатия : С потерями
Размер потока : 98,8 Мбайт (20%)
Язык : English
Дата пометки : UTC 2010-12-09 01:46:38
Общее
Полное имя :Введение в алгебраическую теорию чисел, А. Зыкин\Осень 2010\14.mp4
Формат : MPEG-4
Профиль формата : Base Media
Идентификатор кодека : isom
Размер файла : 783 Мбайт
Продолжительность : 1 ч. 35 м.
Общий поток : 1143 Кбит/сек
Дата кодирования : UTC 2011-02-10 11:00:11
Дата пометки : UTC 2011-02-10 11:00:11
Видео
Идентификатор : 1
Формат : AVC
Формат/Информация : Advanced Video Codec
Профиль формата : Main@L4.2
Параметр CABAC формата : Да
Параметр ReFrames формата : 4 кадры
Идентификатор кодека : avc1
Идентификатор кодека/Информация : Advanced Video Coding
Продолжительность : 1 ч. 35 м.
Вид битрейта : Переменный
Битрейт : 1000 Кбит/сек
Ширина : 1920 пикс.
Высота : 1080 пикс.
Соотношение сторон : 16:9
Режим частоты кадров : Переменный
Частота кадров : 25,000 кадр/сек
Минимальная частота кадров : 25,000 кадр/сек
Максимальная частота кадров : 50,000 кадр/сек
Цветовое пространство : YUV
Подвыборка цветности : 4:2:0
Битовая глубина : 8 бит
Тип развёртки : Прогрессивная
Бит/(Пиксели*Кадры) : 0.019
Размер потока : 693 Мбайт (89%)
Библиотека кодирования : x264 core 107 r1745 4785e8e
Настройки программы : cabac=1 / ref=1 / deblock=1:0:0 / analyse=0x1:0 / me=dia / subme=2 / psy=1 / psy_rd=0.00:0.00 / mixed_ref=0 / me_range=16 / chroma_me=1 / trellis=0 / 8x8dct=0 / cqm=0 / deadzone=21,11 / fast_pskip=1 / chroma_qp_offset=0 / threads=3 / sliced_threads=0 / nr=0 / decimate=1 / interlaced=0 / constrained_intra=0 / bframes=3 / b_pyramid=2 / b_adapt=1 / b_bias=0 / direct=1 / weightb=1 / open_gop=0 / weightp=2 / keyint=250 / keyint_min=25 / scenecut=40 / intra_refresh=0 / rc_lookahead=30 / rc=abr / mbtree=1 / bitrate=1000 / ratetol=4.0 / qcomp=0.60 / qpmin=10 / qpmax=51 / qpstep=4 / ip_ratio=1.41 / aq=1:1.00
Язык : English
Дата пометки : UTC 2011-02-10 11:01:38
Аудио
Идентификатор : 2
Формат : MPEG Audio
Версия формата : Version 1
Профиль формата : Layer 3
Режим : Joint stereo
Расширение режима : MS Stereo
Идентификатор кодека : 6B
Продолжительность : 1 ч. 35 м.
Вид битрейта : Постоянный
Битрейт : 128 Кбит/сек
Канал(ы) : 2 канала(ов)
Частота : 48,0 КГц
Метод сжатия : С потерями
Размер потока : 87,7 Мбайт (11%)
Язык : English
Дата пометки : UTC 2011-02-10 11:01:38
Общее
Полное имя :Введение в алгебраическую теорию чисел, А. Зыкин\Осень 2010\15.mp4
Формат : MPEG-4
Профиль формата : Base Media
Идентификатор кодека : isom
Размер файла : 478 Мбайт
Продолжительность : 1 ч. 45 м.
Общий поток : 635 Кбит/сек
Дата кодирования : UTC 2011-02-10 01:06:06
Дата пометки : UTC 2011-02-10 01:06:06
Видео
Идентификатор : 1
Формат : AVC
Формат/Информация : Advanced Video Codec
Профиль формата : Main@L4.2
Параметр CABAC формата : Да
Параметр ReFrames формата : 2 кадры
Идентификатор кодека : avc1
Идентификатор кодека/Информация : Advanced Video Coding
Продолжительность : 1 ч. 45 м.
Вид битрейта : Переменный
Битрейт : 504 Кбит/сек
Ширина : 1920 пикс.
Высота : 1080 пикс.
Соотношение сторон : 16:9
Режим частоты кадров : Постоянный
Частота кадров : 25,000 кадр/сек
Частота кадров в оригинале : 50,000 кадр/сек
Цветовое пространство : YUV
Подвыборка цветности : 4:2:0
Битовая глубина : 8 бит
Тип развёртки : Прогрессивная
Бит/(Пиксели*Кадры) : 0.010
Размер потока : 379 Мбайт (79%)
Язык : English
Дата пометки : UTC 2011-02-10 01:06:36
Аудио
Идентификатор : 2
Формат : AAC
Формат/Информация : Advanced Audio Codec
Профиль формата : LC
Идентификатор кодека : 40
Продолжительность : 1 ч. 45 м.
Вид битрейта : Переменный
Битрейт : 128 Кбит/сек
Канал(ы) : 2 канала(ов)
Расположение каналов : Front: L R
Частота : 48,0 КГц
Метод сжатия : С потерями
Размер потока : 96,3 Мбайт (20%)
Язык : English
Дата пометки : UTC 2011-02-10 01:06:36
Общее
Полное имя :Введение в алгебраическую теорию чисел, А. Зыкин\Осень 2010\16.mp4
Формат : MPEG-4
Профиль формата : Base Media
Идентификатор кодека : isom
Размер файла : 466 Мбайт
Продолжительность : 1 ч. 42 м.
Общий поток : 635 Кбит/сек
Дата кодирования : UTC 2010-12-22 14:09:37
Дата пометки : UTC 2010-12-22 14:09:37
Видео
Идентификатор : 1
Формат : AVC
Формат/Информация : Advanced Video Codec
Профиль формата : Main@L4.2
Параметр CABAC формата : Да
Параметр ReFrames формата : 2 кадры
Идентификатор кодека : avc1
Идентификатор кодека/Информация : Advanced Video Coding
Продолжительность : 1 ч. 42 м.
Вид битрейта : Переменный
Битрейт : 503 Кбит/сек
Ширина : 1920 пикс.
Высота : 1080 пикс.
Соотношение сторон : 16:9
Режим частоты кадров : Постоянный
Частота кадров : 25,000 кадр/сек
Частота кадров в оригинале : 50,000 кадр/сек
Цветовое пространство : YUV
Подвыборка цветности : 4:2:0
Битовая глубина : 8 бит
Тип развёртки : Прогрессивная
Бит/(Пиксели*Кадры) : 0.010
Размер потока : 369 Мбайт (79%)
Язык : English
Дата пометки : UTC 2010-12-22 14:10:27
Аудио
Идентификатор : 2
Формат : AAC
Формат/Информация : Advanced Audio Codec
Профиль формата : LC
Идентификатор кодека : 40
Продолжительность : 1 ч. 42 м.
Вид битрейта : Переменный
Битрейт : 128 Кбит/сек
Канал(ы) : 2 канала(ов)
Расположение каналов : Front: L R
Частота : 48,0 КГц
Метод сжатия : С потерями
Размер потока : 93,8 Мбайт (20%)
Язык : English
Дата пометки : UTC 2010-12-22 14:10:27
Список лекций
Лектор Название курса видео-записи лекций
Ярослав Владимирович Абрамов Исключительные группы и алгебры Ли Лекция 2 Лекция 3:
[ч.1] [ч.2] Лекция 4 Лекция 5 Лекция 6
Лекция 7 Лекция 8 Лекция 9
Александр Игоревич Буфетов,
Алексей Владимирович Клименко Дополнительные главы эргодической теории
Совместный НМУ-НОЦ-ВШЭ Лекция 1 Лекция 2:
[ч.1] [ч.2] Лекция 3 Лекция 4 Лекция 5
Лекция 6 Лекция 7 Лекция 8:
[ч.1] [ч.2] Лекция 9 Лекция 10
Миша Вербицкий Комплексные поверхности
Совместный с ВШЭ Лекция 1
Александр Моисеевич Вербовецкий Введение в геометрию дифференциальных уравнений. Часть 3
продолжение спецкурса И.С.Красильщика Лекция 1 Лекция 2 Лекция 3 Лекция 4 Лекция 5
Лекция 6 Лекция 7
Александр Владимирович Гасников, Математическое моделирование транспортных потоков
Совместный НМУ-МФТИ-ВШЭ семинар Семинар 25/02/12 Семинар 03/03/12 Семинар 10/03/12 Миниконференция 24/03/12:
ч.1 ч.2 ч.3 ч.4 ч.5 Семинар 14/04/12:
ч.1 ч.2
Семинар 21/04/12
Алексей Иванович Зыкин Дополнительные главы теории чисел. Часть 2
продолжение совместного с ВШЭ спецкурса Лекция 1 Лекция 2 Лекция 3 Лекция 4 Лекция 5
Лекция 6 Лекция 7 Лекция 8 Лекция 9 Лекция 10,ч.1
Лекция 10,ч.2 Лекция 11 Лекция 12 Лекция 13
Алексей Викторович Пенской Дифференциальная геометрия
(второй курс) Лекция 1 Лекция 2 Лекция 3 Лекция 4 Лекция 5
Лекция 6 Лекция 7 Лекция 8 Лекция 9 Лекция 10
Лекция 11 Лекция 12
Виктор Васильевич Прасолов Топология-3
(второй курс) Лекция 1 Лекция 2 Лекция 3 Лекция 4 Лекция 5
Лекция 6 Лекция 7 Лекция 8 Лекция 9 Лекция 10
Михаил Александрович Раскин Верное и доказанное Лекция 1 Лекция 2 Лекция 3 Лекция 4 Лекция 5
Лекция 6 Лекция 7 Лекция 8 Лекция 9 Лекция 10
Лекция 11 Лекция 12
Тимур Мрадович Садыков Комплексный анализ
(второй курс) Лекция 1 Лекция 2 Лекция 3 Лекция 4 Лекция 5
Лекция 6 Лекция 7 Лекция 8 Лекция 9 Лекция 10
Лекция 11 Лекция 12
Евгений Юрьевич Смирнов Алгебра-2
(первый курс) Лекция 1 Лекция 2 Лекция 3 Лекция 4 Лекция 5
Лекция 6 Лекция 7 Лекция 8 Лекция 9 Лекция 10
Андрей Николаевич Соболевский Математический анализ-2
(первый курс) Лекция 1 Лекция 2 Лекция 3 Лекция 4 Лекция 5
Лекция 6 Лекция 7 Лекция 8 Лекция 9 Лекция 10
Лекция 11 Лекция 12 Лекция 13
Алексей Брониславович Сосинский Топология-1
(первый курс) Лекция 1 Лекция 2 Семинар 2 Лекция 3 Лекция 4
Лекция 5 Лекция 6 Лекция 7 Лекция 8 Лекция 9
Лекция 10 Лекция 11 Лекция 12
Андрей Матвеевич Филимонов Уравнения с частными производными (вводный курс). Часть 2
Продолжение Лекция 1 Лекция 2 Лекция 3 Семинар 3 Лекция 4
Семинар 4 Лекция 5 Семинар 5 Лекция 6 Семинар 6
Лекция 7 Семинар 8 Лекция 9 Лекция 10 Лекция 11
Семинар 11
Скриншоты


Постеры

Соцсети

 

Статистика

Автор: Таточка
Добавлен: 21 июн 2012, 09:41
Размер: 115.51 ГБ
Размер: 124 029 030 568 байт
Сидеров: 11
Личеров: 194
Скачали: 0
Здоровье: 5%
Раздающих: 100%
Скорость скачивания: 0 байт/сек
Скорость раздачи: 0 байт/сек
Последний сидер: 11 месяцев 17 дней 18 часов 14 минут 21 секунду назад
Последний личер: 11 месяцев 17 дней 18 часов 14 минут 21 секунду назад
Приватный: Нет (DHT включён)
Школьникам, студентам и педагогам Скачать торрент
Скачать торрент
[ Размер 181.31 КБ / Просмотров 3 ]

Поделиться



  • Похожие торренты
    Ответы
    Просмотры
    Последнее сообщение

Вернуться в Школьникам, студентам и педагогам