Видео


Сообщение

Видео Pagani Zonda R - official commercial / Pagani Zonda R - official commercial [2010 г., Документальный, Реклама, HDTV]

Сообщение Stepan » 05 фев 2012, 21:37

Pagani Zonda R - official commercial / Pagani Zonda R - official commercial
Год выпуска: 2010
Страна: Germany
Жанр: Документальный, Реклама
Продолжительность: 00.03.02
Перевод: Отсутствует
Русские субтитры: Отсутствуют
В ролях: Pagani Zonda R
Описание: Pagani не останавливается не только в производстве супербыстрых и дорогих Zonda, но и в способах их продвижения. Компания сняла рекламный ролик, который по способу подачи напоминает скорее мини-фильм. Предлагаем вашего вниманию видео с Zonda R в главной роли.
Красивый ролик с классным саундтреком.
Качество: HDTV
Формат: MP4
Видео кодек: H.264
Аудио кодек: AAC
Видео: MPEG4 Video (H264) 1280x720 29.97fps 2 020 Kbps
Аудио: AAC 44100Hz stereo 1411 kbps
отчет MediaInfo
General
Complete name : C:\Users\Вовка\Desktop\Zonda R.mp4
Format : MPEG-4
Format profile : Base Media / Version 2
Codec ID : mp42
File size : 46.8 MiB
Duration : 3mn 2s
Overall bit rate : 2 148 Kbps
Encoded date : UTC 2010-02-22 16:08:15
Tagged date : UTC 2010-02-22 16:08:15
gsst : 0
gstd : 183296
gssd : BD4BC0702HH
gshh : v13.lscache5.c.youtube.com
Video
ID : 2
Format : AVC
Format/Info : Advanced Video Codec
Format profile : High@L3.1
Format settings, CABAC : Yes
Format settings, ReFrames : 3 frames
Codec ID : avc1
Codec ID/Info : Advanced Video Coding
Duration : 3mn 2s
Bit rate mode : Variable
Bit rate : 2 020 Kbps
Maximum bit rate : 13.1 Mbps
Width : 1 280 pixels
Height : 720 pixels
Display aspect ratio : 16:9
Frame rate mode : Constant
Frame rate : 29.970 fps
Resolution : 8 bits
Colorimetry : 4:2:0
Scan type : Progressive
Bits/(Pixel*Frame) : 0.073
Stream size : 44.0 MiB (94%)
Title : (C) 2007 Google Inc. v08.13.2007.
Encoded date : UTC 2010-02-22 16:08:15
Tagged date : UTC 2010-02-22 16:08:16
Audio
ID : 1
Format : AAC
Format/Info : Advanced Audio Codec
Format version : Version 4
Format profile : LC
Format settings, SBR : No
Codec ID : 40
Duration : 3mn 2s
Bit rate mode : Variable
Bit rate : 125 Kbps
Maximum bit rate : 181 Kbps
Channel(s) : 2 channels
Channel positions : L R
Sampling rate : 44.1 KHz
Stream size : 2.72 MiB (6%)
Title : (C) 2007 Google Inc. v08.13.2007.
Encoded date : UTC 2010-02-22 16:08:15
Tagged date : UTC 2010-02-22 16:08:16
Скриншоты
РаскадровкаСкриншоты

Постеры

Соцсети

 

Статистика

Автор: Stepan
Добавлен: 05 фев 2012, 21:37
Размер: 46.8 МБ
Размер: 49 068 814 байт
Сидеров: 2
Личеров: 4
Скачали: 0
Здоровье: 50%
Раздающих: 100%
Скорость скачивания: 0 байт/сек
Скорость раздачи: 0 байт/сек
Последний сидер: 7 дней 8 часов 10 минут 49 секунд назад
Последний личер: 7 дней 8 часов 10 минут 49 секунд назад
Приватный: Нет (DHT включён)
Скачать торрент
Скачать торрент
[ Размер 15.14 КБ / Просмотров 2 ]

Поделиться



  • Похожие торренты
    Ответы
    Просмотры
    Последнее сообщение

Вернуться в Тюнинг, настройка