Видео


Сообщение

Видео Лучшие автомобили: сборка завершена / Ultimate Car Build-Off (Серии 1-2, 4-5 из 10) [2010, США, Форсаж, тюнинг, HDTVRip] Discovery

Сообщение Stepan » 05 фев 2012, 21:40

Лучшие автомобили: сборка завершена / Ultimate Car Build-Off
Страна: США
Режиссер: A. Smith and Company Properties
Жанр: Форсаж, тюнинг
Дата выпуска: 2010
Продолжительность: ~ 00:44:00 на серию
Перевод: Профессиональный (одноголосый закадровый)
Описание: Программа рассказывает о механиках из всех уголков Америки, которые участвуют в конкурсе по созданию самого новаторского автомобиля с призовым фондом в 100 000 долларов. Вы познакомитесь с невероятным дизайном и творческими возможностями участников, которые демонстрируют все свои знания и навыки. Ведут программу известный профессиональный дизайнер Лу Сантьяго и чемпион ралли Эндрю Пикард. Результаты работы механиков оценивает легендарный мастер дизайна Чип Фуз.
Семпл: http://rapidshare.com/files/436426662/Ultimate.Car....r.Car.Sample.avi
Качество: HDTVRip
Формат: AVI
Видео кодек: XviD
Аудио кодек: MP3
Видео: 624x352 (16:9), 25 fps, XviD 1.2.1 ~1500 kbps, 0.273 bit/pixel
Аудио: Русский 48 kHz, MPEG Layer 3, 2 ch, 192.00 kbps
Список серий
Серия 1 - Суперкар для футболенка
Описание: Две команды соперничающих механиков создают автомобили из одинакового набора деталей. Но победитель будет только один.
MediaInfo
General
Complete name : \Ultimate.Car.Build-Off.HDTVRip\Ultimate.Car.Build-Off.s01e01.Soccer.Mom.Super.Car.avi
Format : AVI
Format/Info : Audio Video Interleave
File size : 532 MiB
Duration : 43mn 44s
Overall bit rate : 1 701 Kbps
Writing application : VirtualDubMod 1.5.10.2 (build 2540/release)
Writing library : VirtualDubMod build 2540/release
Video
ID : 0
Format : MPEG-4 Visual
Format profile : Advanced Simple@L5
Format settings, BVOP : Yes
Format settings, QPel : No
Format settings, GMC : No warppoints
Format settings, Matrix : Default (H.263)
Muxing mode : Packed bitstream
Codec ID : XVID
Codec ID/Hint : XviD
Duration : 43mn 44s
Bit rate : 1 500 Kbps
Width : 624 pixels
Height : 352 pixels
Display aspect ratio : 16:9
Frame rate : 25.000 fps
Color space : YUV
Chroma subsampling : 4:2:0
Bit depth : 8 bits
Scan type : Progressive
Bits/(Pixel*Frame) : 0.273
Stream size : 469 MiB (88%)
Writing library : XviD 1.2.1 (UTC 2008-12-04)
Audio
ID : 1
Format : MPEG Audio
Format version : Version 1
Format profile : Layer 3
Mode : Joint stereo
Mode extension : MS Stereo
Codec ID : 55
Codec ID/Hint : MP3
Duration : 43mn 44s
Bit rate mode : Constant
Bit rate : 192 Kbps
Channel(s) : 2 channels
Sampling rate : 48.0 KHz
Stream size : 60.1 MiB (11%)
Alignment : Aligned on interleaves
Interleave, duration : 40 ms (1.00 video frame)
Interleave, preload duration : 504 ms
Скриншоты
Серия 2 - Скалолазание
Описание: Команды Speed Unlimited и Hollywood Hot Rods соревнуются в переделке катафалков во внедорожники. На это им дается всего четыре дня.
MediaInfo
General
Complete name : \Ultimate.Car.Build-Off.HDTVRip\Ultimate.Car.Build-Off.s01e02.Hill-Climbing.Hearse.avi
Format : AVI
Format/Info : Audio Video Interleave
File size : 534 MiB
Duration : 44mn 4s
Overall bit rate : 1 694 Kbps
Writing application : VirtualDubMod 1.5.10.2 (build 2540/release)
Writing library : VirtualDubMod build 2540/release
Video
ID : 0
Format : MPEG-4 Visual
Format profile : Advanced Simple@L5
Format settings, BVOP : Yes
Format settings, QPel : No
Format settings, GMC : No warppoints
Format settings, Matrix : Default (H.263)
Muxing mode : Packed bitstream
Codec ID : XVID
Codec ID/Hint : XviD
Duration : 44mn 4s
Bit rate : 1 492 Kbps
Width : 624 pixels
Height : 352 pixels
Display aspect ratio : 16:9
Frame rate : 25.000 fps
Color space : YUV
Chroma subsampling : 4:2:0
Bit depth : 8 bits
Scan type : Progressive
Bits/(Pixel*Frame) : 0.272
Stream size : 470 MiB (88%)
Writing library : XviD 1.2.1 (UTC 2008-12-04)
Audio
ID : 1
Format : MPEG Audio
Format version : Version 1
Format profile : Layer 3
Mode : Joint stereo
Mode extension : MS Stereo
Codec ID : 55
Codec ID/Hint : MP3
Duration : 44mn 4s
Bit rate mode : Constant
Bit rate : 192 Kbps
Channel(s) : 2 channels
Sampling rate : 48.0 KHz
Stream size : 60.5 MiB (11%)
Alignment : Aligned on interleaves
Interleave, duration : 40 ms (1.00 video frame)
Interleave, preload duration : 504 ms
Скриншоты
Серия 4 - Тянитолкай
Описание: Команды Z Motorsports и Alternative Automotive Technologies должны купить два автомобиля с передним приводом и объединить две передние части в одну машину.
MediaInfo
General
Complete name : \Ultimate.Car.Build-Off.HDTVRip\Ultimate.Car.Build-Off.s01e04.Push.Me.Pull.You.avi
Format : AVI
Format/Info : Audio Video Interleave
File size : 533 MiB
Duration : 43mn 53s
Overall bit rate : 1 697 Kbps
Writing application : VirtualDubMod 1.5.10.2 (build 2540/release)
Writing library : VirtualDubMod build 2540/release
Video
ID : 0
Format : MPEG-4 Visual
Format profile : Advanced Simple@L5
Format settings, BVOP : Yes
Format settings, QPel : No
Format settings, GMC : No warppoints
Format settings, Matrix : Default (H.263)
Muxing mode : Packed bitstream
Codec ID : XVID
Codec ID/Hint : XviD
Duration : 43mn 53s
Bit rate : 1 495 Kbps
Width : 624 pixels
Height : 352 pixels
Display aspect ratio : 16:9
Frame rate : 25.000 fps
Color space : YUV
Chroma subsampling : 4:2:0
Bit depth : 8 bits
Scan type : Progressive
Bits/(Pixel*Frame) : 0.272
Stream size : 469 MiB (88%)
Writing library : XviD 1.2.1 (UTC 2008-12-04)
Audio
ID : 1
Format : MPEG Audio
Format version : Version 1
Format profile : Layer 3
Mode : Joint stereo
Mode extension : MS Stereo
Codec ID : 55
Codec ID/Hint : MP3
Duration : 43mn 53s
Bit rate mode : Constant
Bit rate : 192 Kbps
Channel(s) : 2 channels
Sampling rate : 48.0 KHz
Stream size : 60.3 MiB (11%)
Alignment : Aligned on interleaves
Interleave, duration : 40 ms (1.00 video frame)
Interleave, preload duration : 504 ms
Скриншоты
Серия 5 - Четыре ведущих
Описание: В этом эпическом соревновании две команды стараются пробиться в финал, который пройдет в Детройте.
MediaInfo
General
Complete name : \Ultimate.Car.Build-Off.HDTVRip\Ultimate.Car.Build-Off.s01e05.Four-Wheel.Wheelie.Machine.avi
Format : AVI
Format/Info : Audio Video Interleave
File size : 533 MiB
Duration : 43mn 49s
Overall bit rate : 1 700 Kbps
Writing application : VirtualDubMod 1.5.10.2 (build 2540/release)
Writing library : VirtualDubMod build 2540/release
Video
ID : 0
Format : MPEG-4 Visual
Format profile : Advanced Simple@L5
Format settings, BVOP : Yes
Format settings, QPel : No
Format settings, GMC : No warppoints
Format settings, Matrix : Default (H.263)
Muxing mode : Packed bitstream
Codec ID : XVID
Codec ID/Hint : XviD
Duration : 43mn 49s
Bit rate : 1 499 Kbps
Width : 624 pixels
Height : 352 pixels
Display aspect ratio : 16:9
Frame rate : 25.000 fps
Color space : YUV
Chroma subsampling : 4:2:0
Bit depth : 8 bits
Scan type : Progressive
Bits/(Pixel*Frame) : 0.273
Stream size : 470 MiB (88%)
Writing library : XviD 1.2.1 (UTC 2008-12-04)
Audio
ID : 1
Format : MPEG Audio
Format version : Version 1
Format profile : Layer 3
Mode : Joint stereo
Mode extension : MS Stereo
Codec ID : 55
Codec ID/Hint : MP3
Duration : 43mn 49s
Bit rate mode : Constant
Bit rate : 192 Kbps
Channel(s) : 2 channels
Sampling rate : 48.0 KHz
Stream size : 60.2 MiB (11%)
Alignment : Aligned on interleaves
Interleave, duration : 40 ms (1.00 video frame)
Interleave, preload duration : 504 ms
Скриншоты
-Доп. информация: Новые серии будут добавляться в эту раздачу.
Лучшие автомобили: сборка завершена / Ultimate Car Build-Off [2010, США, Форсаж, тюнинг, HDTV, 720p] Discovery HD
Исходник - запись 1080i с телеканала Discovery HD Showcase
Запись/Монтаж/Кодирование: DeLL
Внимание! Раздача ведётся путём добавления новых серий!
Внимание! Раздача ведётся путём добавления новых серий; при каждом добавлении создаётся новый торрент. Чтобы начать докачку новой серии, пользователям необходимо сделать следующее:
(1) остановить скачивание,
(2) удалить старый торрент у себя из клиента (старые серии удалять не надо),
(3) скачать новый торрент и запустить его у себя в клиенте вместо старого, при этом указать клиенту путь в старую папку куда и должно происходить скачивание новых серий.
Ваш клиент при этом должен произвести хеширование (проверку) старой папки (если не производит сам - помогите ему сделать это), и будет докачивать только те серии которых у вас ещё нет. Старые серии при этом не удаляются, а продолжают раздаваться!
Если вы уже удалили старые серии, то предотвратить повторную закачку старых серий можно, отжав галочку в соответсвующих местах при запуске нового торрента. По возможности, желательно не удалять старые серии как можно дольше чтобы релизёр не столько продолжал раздавать старые серии, а смог сконцентрироваться на новых.
История обновлений
20.12.2010 00:55 МСК - Добавлена 2 серия: Скалолазание
07.01.2011 13:50 МСК - Добавлены 4 серия: Тянитолкай; 5 серия: Четыре ведущих

Постеры

Соцсети

 

Статистика

Автор: Stepan
Добавлен: 05 фев 2012, 21:40
Размер: 2.08 ГБ
Размер: 2 235 596 800 байт
Сидеров: 13
Личеров: 6
Скачали: 0
Здоровье: 100%
Раздающих: 100%
Скорость скачивания: 0 байт/сек
Скорость раздачи: 0 байт/сек
Последний сидер: 7 дней 1 час 56 минут 12 секунд назад
Последний личер: 7 дней 1 час 56 минут 12 секунд назад
Приватный: Нет (DHT включён)
Скачать торрент
Скачать торрент
[ Размер 11.29 КБ / Просмотров 2 ]

Поделиться



Вернуться в Тюнинг, настройка