Видео


Сообщение

Видео Подготовка водителей категории "В" (2004) DVDRip

Сообщение Nik » 08 фев 2012, 23:21

Подготовка водителей категории "В" (2004) DVDRip
Название: Подготовка водителей категории "В"
Страна: Россия
Год выпуска: 2004
Жанр: Обучающее видео

Описание:
В основу учебного видеокурса положена методика подготовки водителей различного уровня от начинающих до спортсменов. Эта методика разработана и успешно применяется в "Школе экстремального вождения "Моисеев-Грахов". Она вобрала в себя знания и навыки сотрудников 7-го управления КГБ, ФСБ, спортсменов-автогонщиков мастеров спорта, а также водителей профессионалов имеющих большой стаж и богатый жизненный опыт.
Современные приемы безопасного вождения показанные в фильме, будут полезны как учащимся автошкол, готовящимся сдавать экзамен, так и водителям, имеющим водительское удостоверение, но желающим повысить свое мастерство.
Посмотрев видеокурс самостоятельно, или пройдя его с преподавателем, вы сможете существенно сократить время, которое требуется инструктору по вождению, для объяснения вам теоретических моментов, что повышает эффективность практических занятий и экономит ваше время и средства.

Продолжительность: 02:50:50
Качество видео: AVI
Формат: MPEG
Видео: 512x384; 25 fps; XviD build 46; 1438 kb/s
Аудио: AC3 Dolby Digital; 2/0 (L,R) ch; 192.00 kb/s; 48 kHz
Код:
Код: Выделить всё
Общее
Полное имя                       : F:\Раздачи\Подготовка водителей категории В (2004) DVDRip.avi
Формат                           : AVI
Формат/Информация                : Audio Video Interleave
Размер файла                     : 1,95 Гбайт
Продолжительность                : 2 ч. 50 м.
Общий поток                      : 1637 Кбит/сек
Программа кодирования            : VirtualDubMod 1.5.4.1 (build 2178/release)
Библиотека кодирования           : VirtualDubMod build 2178/release

Видео
Идентификатор                    : 0
Формат                           : MPEG-4 Visual
Профиль формата                  : Advanced Simple@L5
Параметр BVOP формата            : 1
Параметр QPel формата            : Нет
Параметр GMC формата             : Без точки перехода
Параметр матрицы формата         : Выборочная
Идентификатор кодека             : XVID
Идентификатор кодека/Подсказка   : XviD
Продолжительность                : 2 ч. 50 м.
Битрейт                          : 1438 Кбит/сек
Ширина                           : 512 пикселей
Высота                           : 384 пикселя
Соотношение сторон               : 4:3
Частота кадров                   : 25,000 кадров/сек
Цветовое пространство            : YUV
Субдискретизация насыщенности    : 4:2:0
Битовая глубина                  : 8 бит
Тип развёртки                    : Прогрессивная
Метод сжатия                     : С потерями
Бит/(Пиксели*Кадры)              : 0.293
Размер потока                    : 1,72 Гбайт (88%)
Библиотека кодирования           : XviD 1.1.2 (UTC 2006-11-01)

Аудио
Идентификатор                    : 1
Формат                           : AC-3
Формат/Информация                : Audio Coding 3
Расширение режима                : CM (complete main)
Идентификатор кодека             : 2000
Продолжительность                : 2 ч. 50 м.
Вид битрейта                     : Постоянный
Битрейт                          : 192 Кбит/сек
Каналы                           : 2 канала
Расположение каналов             : Front: L R
Частота                          : 48,0 КГц
Битовая глубина                  : 16 бит
Метод сжатия                     : С потерями
Размер потока                    : 235 Мбайт (12%)
Выравнивание                     : Разделение по промежуткам
Продолжительность промежутка     : 96  мс. (2,40 видеокадра)
Время предзагрузки промежутка    : 96  мс.
Время раздачи: 9.00 - 23.00 (по мере возможности...)

Постеры

Соцсети

 

Статистика

Автор: Nik
Добавлен: 08 фев 2012, 23:21
Размер: 1.95 ГБ
Размер: 2 097 766 400 байт
Сидеров: 113
Личеров: 3
Скачали: 0
Здоровье: 100%
Раздающих: 100%
Скорость скачивания: 0 байт/сек
Скорость раздачи: 0 байт/сек
Последний сидер: 3 месяца 18 дней 33 минуты 11 секунд назад
Последний личер: 3 месяца 18 дней 33 минуты 11 секунд назад
Приватный: Нет (DHT включён)
Скачать торрент
Скачать торрент
[ Размер 20.44 КБ / Просмотров 0 ]

Поделиться



Вернуться в Автошкола, вождение