Видео


Сообщение

Видео [EN] Кевин Леврони - Мускульная Машина из Мериленда / Kevin Levrone - Maryland Muscle Machine (2005) DVDRip

Сообщение Nik » 08 фев 2012, 23:42

[EN] Кевин Леврони - Мускульная Машина из Мериленда / Kevin Levrone - Maryland Muscle Machine (2005) DVDRip
Язык: Английский
Русское название: Кевин Леврони - Мускульная Машина из Мериленда
Оригинальное название: Kevin Levrone - Maryland Muscle Machine
Режиссер / Телекомпания: Mitsuru Okabe
Год выпуска: 2005
Жанр: Документальный, Спорт

Описание:
Тренировки и жизнь Кевина Леврони. В картине рассказывается о том, как строит Кевин Леврони свои тренировки, как питается и как проводит свободное от бодибилдинга время.

Кевин Леврони, имеющий прозвище Мерилендская Мускульная Машина, по праву считается одним из самых выдающихся бодибилдеров за всю историю этого спорта. Это неунывающий, потрясающе целеустремленный спортсмен, покоривший многих фанатов не столько шикарными мышцами (которые, бесспорно, заслуживают восхищения), сколько силой своего характера.

Продолжительность: 01:59:43

Перевод: Отсутствует

Видеокодек: Xvid
Битрейт видео: ~1998 kb/s
Размер кадра: 512 x 384
Качество видео: DVDRip
Аудиокодек: MP3
Битрейт аудио: 128 kb/s AVG

Скриншоты:


Время раздачи: 24/7

MediaInfo Полное имя: D:\Мускульная Машина из Мериленда\Kevin Levrone - Maryland Muscle Machine.avi
Формат: AVI
Формат/Информация: Audio Video Interleave
Профиль формата: OpenDML
Размер файла: 1,79 Гбайт
Продолжительность: 2 ч. 0 м.
Общий поток: 2132 Кбит/сек

Видео
Идентификатор: 0
Формат: MPEG-4 Visual
Профиль формата: Simple@L3
Параметр BVOP формата: Нет
Параметр QPel формата: Нет
Параметр GMC формата: Без точки перехода
Параметр матрицы формата: Default (H.263)
Идентификатор кодека: XVID
Идентификатор кодека/Подсказка: XviD
Продолжительность: 2 ч. 0 м.
Битрейт: 1998 Кбит/сек
Ширина: 512 пикселей
Высота: 384 пикселя
Соотношение сторон: 4:3
Частота кадров: 29,970 кадров/сек
Цветовое пространство: YUV
Субдискретизация насыщенности: 4:2:0
Битовая глубина: 8 бит
Тип развёртки: Прогрессивная
Метод сжатия: С потерями
Бит/(Пиксели*Кадры): 0.339
Размер потока: 1,68 Гбайт (94%)
Библиотека кодирования: ZJMedia MPEG Encoder

Аудио
Идентификатор: 1
Формат: MPEG Audio
Версия формата: Version 1
Профиль формата: Layer 3
Режим: Joint stereo
Расширение режима: MS Stereo
Идентификатор кодека: 55
Идентификатор кодека/Подсказка: MP3
Продолжительность: 2 ч. 0 м.
Вид битрейта: Постоянный
Битрейт: 128 Кбит/сек
Каналы: 2 канала
Частота: 44,1 КГц
Метод сжатия: С потерями
Размер потока: 110 Мбайт (6%)
Выравнивание: Разделение по промежуткам
Продолжительность промежутка: 968мс. (29,00 видеокадров)[/spoiler]

Постеры

Соцсети

 

Статистика

Автор: Nik
Добавлен: 08 фев 2012, 23:42
Размер: 1.79 ГБ
Размер: 1 922 885 047 байт
Сидеров: 1
Личеров: 8
Скачали: 0
Здоровье: 12%
Раздающих: 100%
Скорость скачивания: 0 байт/сек
Скорость раздачи: 0 байт/сек
Последний сидер: 21 день 1 час 52 минуты 53 секунды назад
Последний личер: 21 день 1 час 52 минуты 53 секунды назад
Приватный: Нет (DHT включён)
Здоровье и спорт Скачать торрент
Скачать торрент
[ Размер 18.72 КБ / Просмотров 2 ]

Поделиться



  • Похожие торренты
    Ответы
    Просмотры
    Последнее сообщение

Вернуться в Здоровье и спорт