Фильм


Сообщение

Фильм Рай или Забвение / Paradise or Oblivion (2012) DVDRip

Сообщение Таточка » 11 ноя 2012, 11:14

Русское название: Рай или Забвение
Оригинальное название: Paradise or Oblivion
Режиссер / Телекомпания: Jacque Fresco, Roxanne Meadows
Год выпуска: 2012
Жанр: Документальный

Описание:
Документальный фильм продолжительностью 48 минут познакомит зрителя с целями и предложениями проекта «Венера». Этот фильм предшествует главному художественному фильму, над которым в данный момент ведется работа.
Документальный фильм «Рай или забвение» (Paradise or Oblivion) создан проектом «Венера» (The Venus Project) для свободного распространения. Музыка Карли Парадиз (Carly Paradis) из альбома «They Have Been Watching».
Фильм раскрывает реальные причины искажения системы ценностей человека и губительные последствия, порожденные настоящей системой общества. Авторы проекта знакомят зрителя с ресурсоориентированной экономикой – новой социально-экономической моделью, которая построена на основе новейших технологий и последних научных разработок. Данная модель является результатом труда всей жизни изобретателя, инженера промышленного дизайна, специалиста по социальной инженерии, футуролога Жака Фреско.
Создатели фильма говорят о необходимости перехода от устаревших и неэффективных методов в политике, законотворчестве, бизнесе, и в любой другой форме власти к использованию научных методов и новейших технологий с целью удовлетворения потребностей всех людей на земле. Данный подход основывается не на мнениях отдельных политических деятелей, финансовой элиты или сторонников так называемой «демократии». Напротив, в его основе лежит цель – установление динамического равновесия с природой планеты и обеспечение изобилия для всего человечества.
Фильм «Рай или забвение» знакомит зрителя с новой шкалой жизненных ценностей, на основе которой был бы возможен гуманный и глобальный переход к устройству общества, приемлимого для всей человеческой цивилизации. Эта альтернатива призывает нас оставить позади сегодняшнюю систему устройства общества, в основе которой положены денежные отношения, ограничение свободы и искусственный дефицит.
Пресс-релиз
Документальный фильм решает глобальную проблему государственного долга за 48 минут.
30 марта 2012, Венус, штат Флорида, США.
Проект «Венера» представляет документальный фильм «Рай или забвение». Меньше чем за час министрам, президентам и другим политическим лидерам предлагается познакомиться с решениями проблемы растущего национального долга, а также навсегда покончить с нищетой, войнами, преступлениями и социальным неравенством.
Этот фильм не только раскрывает реальные причины основных глобальных проблем, но и рекомендует возможные шаги для их решения. «Рай или забвение» доступен для свободного просмотра в интернете и переведен более чем на 30 языков. Любому желающему предоставляется возможность познакомиться с фильмом, независимо от уровня дохода, расы, вероисповедания, цвета кожи или национальности.
«Рай или забвение» – это итог универсальных исследований, проведенных организацией проект «Венера» в течение 75 лет. Жак Фреско и Роксана Медоуз являются основателями и руководителями проекта. Основанный на данных антропологии человека, фильм охватывает практически все области науки и экономики, а также предлагает всеобъемлющий план по решению проблем нашей планеты, как для каждого в отдельности, так и для всех семи миллиардов ее жителей.
Этот документальный фильм является очередным шагом к цели проекта «Венера» по созданию полнометражной художественной картины, для которой в данный момент подыскиваются режиссер и сценарист.
Официальный сайт проекта «Венера» - http://www.thevenusproject.com
Все русские материалы по проекту «Венера» - http://vkontakte.ru/thevenusproject
Сайт фильма - http://www.paradiseoroblivion.ru

Продолжительность: 00:48:12

Перевод: Профессиональный, двухголосый. закадровый (Cтудия сmrecords.ru)

Видеокодек: Xvid
Битрейт видео: ~Xvid29.97fps 1799 Kbps
Размер кадра: 720x400
Качество видео: DVDRip
Аудиокодек: AC3
Битрейт аудио: Dolby AC3 48000Hz stereo 192kbps
Формат: AVI
Формат/Информация: Audio Video Interleave
Размер файла: 690 Мбайт
Продолжительность: 48 м.
Общий поток: 2003 Кбит/сек
Программа кодирования: VirtualDubMod 1.5.10.3 | www.virtualdub-fr.org || (build 2550/release)
Библиотека кодирования: VirtualDubMod build 2550/release

Видео
Идентификатор: 0
Формат: MPEG-4 Visual
Профиль формата: Advanced Simple@L5
Параметр BVOP формата: 2
Параметр QPel формата: Нет
Параметр GMC формата: Без точки перехода
Параметр матрицы формата: Default (H.263)
Идентификатор кодека: XVID
Идентификатор кодека/Подсказка: XviD
Продолжительность: 48 м.
Битрейт: 1799 Кбит/сек
Ширина: 720 пикс.
Высота: 400 пикс.
Соотношение сторон: 16:9
Частота кадров: 29,970 кадр/сек
Цветовое пространство: YUV
Подвыборка цветности: 4:2:0
Битовая глубина: 8 бит
Тип развёртки: Прогрессивная
Метод сжатия: С потерями
Бит/(Пиксели*Кадры): 0.208
Размер потока: 620 Мбайт (90%)
Библиотека кодирования: XviD 1.2.1 (UTC 2008-12-04)

Аудио
Идентификатор: 1
Формат: AC-3
Формат/Информация: Audio Coding 3
Расширение режима: CM (complete main)
Идентификатор кодека: 2000
Продолжительность: 48 м.
Вид битрейта: Постоянный
Битрейт: 192 Кбит/сек
Канал(ы): 2 канала(ов)
Расположение каналов: Front: L R
Частота: 48,0 КГц
Битовая глубина: 16 бит
Метод сжатия: С потерями
Размер потока: 66,2 Мбайт (10%)
Выравнивание: Разделение по промежуткам
Продолжительность промежутка: 33мс. (1,00 видеокадр)
Время предзагрузки промежутка: 500 ms
Скриншоты:




Сюда на http://1kino.com/ захожу за фильмами.

Постеры

Соцсети

 

Статистика

Автор: Таточка
Добавлен: 11 ноя 2012, 11:14
Размер: 690.44 МБ
Размер: 723 980 288 байт
Сидеров: 1
Личеров: 2
Скачали: 2
Здоровье: 50%
Раздающих: 50%
Скорость скачивания: 0 байт/сек
Скорость раздачи: 0 байт/сек
Последний сидер: 2 месяца 18 дней 15 часов 16 минут назад
Последний личер: 2 месяца 18 дней 15 часов 16 минут назад
Приватный: Нет (DHT включён)
Скачать торрент
Скачать торрент
[ Размер 14.24 КБ / Просмотров 1 ]

Поделиться



  • Похожие торренты
    Ответы
    Просмотры
    Последнее сообщение

Вернуться в Мир будущего