BBC: Век эгоизма. Часть 4 – Вся власть Хомячкам / The Century of the Self. Part 4 - Eight people sipping wine in Ketteri

Телеканал, документальные фильмы
Торрент Сидеров Личеров Размер
torrent_39544.torrent
0 0 385.23 МБ
Аватара пользователя
Таточка
Сообщения: 13173
Зарегистрирован: 08 янв 2012, 19:02

BBC: Век эгоизма. Часть 4 – Вся власть Хомячкам / The Century of the Self. Part 4 - Eight people sipping wine in Ketteri

Сообщение Таточка » 11 ноя 2012, 12:07

BBC: Век эгоизма. Часть 4 – Вся власть Хомячкам / The Century of the Self. Part 4 - Eight people sipping wine in Kettering (2002) TVRip (2002) TVRip

Русское название: BBC: Век эгоизма. Часть 4 – Вся власть Хомячкам
Оригинальное название: The Century of the Self. Part 4 - Eight people sipping wine in Kettering (2002) TVRip
Режиссер / Телекомпания: ВВС
Год выпуска: 2002
Жанр: Документальный

Описание:
О фильме:
Это история о становлении идеи, которая стала доминирующей в нашем обществе. Идеи о том, что самое главное в жизни – удовлетворение своих желаний. В предыдущих эпизодах было показано, как бизнес сформировал и развил в обществе идею удовлетворения неосознанных желаний. Он использовал идеи Зигмунда Фрейда для разработки методов выявления скрытых желаний потребителей, и затем начал удовлетворять эти желания, предлагая соответствующие товары. В завершающем эпизоде мы расскажем о том, как идея эгоизма стала доминировать в политике. В нем рассказывается история о том, как левые политики в Америке и Великобритании обратились к этим методам, чтобы вернуть себе власть. Они верили, что создают новые и лучшие формы демократии, которая действительно отражает чаяния людей. Но они не понимали, что целью тех, кто создавал эти методы, было не освобождение людей, а создание новых средств их контроля в эпоху массовой демократии.

Продолжительность: 00:59:25

Перевод: Одноголосый закадровый, профессиональный
Язык субтитров: нет

Видеокодек: DivX 5
Битрейт видео: ~655 kbps avg
Размер кадра: 640x480 (1.33:1)
Качество видео: TVRip
Аудиокодек: MPEG1 Layer3 mono
Битрейт аудио: ~64.00 kbps avg
Format : AVI
Format/Info : Audio Video Interleave
File size : 385 MiB
Duration : 59mn 25s
Overall bit rate : 731 Kbps
Writing application : VirtualDubMod 1.5.10.2 (build 2542/release)
Writing library : VirtualDubMod build 2542/release

Video
ID : 0
Format : MPEG-4 Visual
Format settings, BVOP : 3
Format settings, QPel : No
Format settings, GMC : No warppoints
Format settings, Matrix : Default (H.263)
Muxing mode : Packed bitstream
Codec ID : DX50
Codec ID/Hint : DivX 5
Duration : 58mn 52s
Bit rate : 655 Kbps
Width : 640 pixels
Height : 480 pixels
Display aspect ratio : 4:3
Frame rate : 29.970 fps
Color space : YUV
Chroma subsampling : 4:2:0
Bit depth : 8 bits
Scan type : Progressive
Compression mode : Lossy
Bits/(Pixel*Frame) : 0.071
Stream size : 264 MiB (91%)

Audio
ID : 1
Format : MPEG Audio
Codec ID : 55
Codec ID/Hint : MP3
Duration : 59mn 25s
Bit rate : 64.0 Kbps
Channel(s) : 1 channel
Sampling rate : 48.0 KHz
Compression mode : Lossy
Stream size : 27.0 MiB (9%)
Alignment : Split accross interleaves
Interleave, duration : 33 ms (1.00 video f
Скриншоты:


Время раздачи: 11:00 до 23:00
У вас нет необходимых прав для просмотра вложений в этом сообщении.