BBC: Век эгоизма. Часть 3 – В твоей голове сидит полицейский, которого нужно уничтожить / The Century of the Self. Part

Телеканал, документальные фильмы
Торрент Сидеров Личеров Размер
torrent_39546.torrent
13 1 345.78 МБ
Аватара пользователя
Таточка
Сообщения: 13173
Зарегистрирован: 08 янв 2012, 19:02

BBC: Век эгоизма. Часть 3 – В твоей голове сидит полицейский, которого нужно уничтожить / The Century of the Self. Part

Сообщение Таточка » 11 ноя 2012, 12:07

BBC: Век эгоизма. Часть 3 – В твоей голове сидит полицейский, которого нужно уничтожить / The Century of the Self. Part 3 - There is a Policeman Inside All Our Heads: He Must Be Destroyed (2002) TVRip

Русское название: Век эгоизма. Часть 3 – В твоей голове сидит полицейский, которого нужно уничтожить
Оригинальное название: The Century of the Self. Part 3 - There is a Policeman Inside All Our Heads: He Must Be Destroyed
Режиссер / Телекомпания: Адам Кёртис
Год выпуска: 2002
Жанр: Документальный

Описание:
Это сериал о том, как идеи Зигмунда Фрейда о бессознательном были использованы власть имущими для управления поведением масс в эпоху демократии.

Идеи Фрейда распространились по всей Америке в 50-х годах двадцатого века. Они распространялись благодаря усилиям дочери Фрейда Анны и его племянника Эдварда Бернейса. Он сделал теории Фрейда центральным стержнем рекламы и маркетинга. Оба они верили, что в основе каждого человеческого существа находится скрытое иррациональное начало, которое необходимо контролировать –как для блага самого человека, так и ради стабильности общества.
Но оппоненты, которые говорили, что фрейдисты неправы в своих представлениях о человеческой природе, были уже готовы отстранить наследников Фрейда от власти. Внутреннюю сущность человека не надо подавлять и контролировать, ее надо поощрять к самовыражению. Благодаря этому появится новый тип сильной личности и лучшее общество.
Но результаты этой революции оказались совершенно противоположными. Они привели к появлению замкнутых на себя, уязвимых и, прежде всего, жадных людей. Людей, подверженных манипуляциям со стороны бизнеса и политики в гораздо большей мере, чем когда-либо ранее.
Стоящие у власти теперь будут контролировать сознание людей, не подавляя их бессознательное начало, а потакая его бесконечным желаниям.

Смотрите также:
BBC: Век эгоизма. Часть 1 – Машины счастья / The Century of the Self. Part 1 - Happiness machines (2002) DVDRip
BBC: Век эгоизма. Часть 2 – Конструирование согласия / The Century of the Self. Part 2 - The Engineering of Consent (2002) TVRip

Релиз:

Участники: Вернер Эрхард, Мартин С. Бергманн, Тони Блэр, Билл Клинтон, Адам Кертис, Роберт Рич, Вильгельм Райх

Продолжительность: 00:58:36

Перевод: Одноголосый закадровый, профессиональный

Видеокодек: DivX 4/5/6
Битрейт видео: ~749 kbps avg
Размер кадра: 640x480 (1.33:1)
Качество видео: TVRip
Аудиокодек: MP3
Битрейт аудио: 64.00 kbps avg
Format : AVI
Format/Info : Audio Video Interleave
File size : 346 MiB
Duration : 58mn 36s
Overall bit rate : 825 Kbps
Writing application : VirtualDubMod 1.5.10.2 (build 2542/release)
Writing library : VirtualDubMod build 2542/release

Video
ID : 0
Format : MPEG-4 Visual
Format settings, BVOP : 3
Format settings, QPel : No
Format settings, GMC : No warppoints
Format settings, Matrix : Default (H.263)
Muxing mode : Packed bitstream
Codec ID : DX50
Codec ID/Hint : DivX 5
Duration : 58mn 36s
Bit rate : 749 Kbps
Width : 640 pixels
Height : 480 pixels
Display aspect ratio : 4:3
Frame rate : 29.970 fps
Color space : YUV
Chroma subsampling : 4:2:0
Bit depth : 8 bits
Scan type : Progressive
Compression mode : Lossy
Bits/(Pixel*Frame) : 0.081
Stream size : 314 MiB (91%)
Writing library : DivX 6.8.5 (UTC 2009-08-20)

Audio
ID : 1
Format : MPEG Audio
Format version : Version 1
Format profile : Layer 3
Codec ID : 55
Codec ID/Hint : MP3
Duration : 58mn 35s
Bit rate mode : Constant
Bit rate : 64.0 Kbps
Channel(s) : 1 channel
Sampling rate : 48.0 KHz
Compression mode : Lossy
Stream size : 26.8 MiB (8%)
Alignment : Split accross interleaves
Interleave, duration : 33 ms (1.00 video frame)
Interleave, preload duration : 500 ms
Скриншоты:


Время раздачи: 24/7
У вас нет необходимых прав для просмотра вложений в этом сообщении.