BBC: Век эгоизма. Часть 2 – Конструирование согласия / The Century of the Self. Part 2 - The Engineering of Consent (200

Телеканал, документальные фильмы
Торрент Сидеров Личеров Размер
torrent_39548.torrent
0 0 314.69 МБ
Аватара пользователя
Таточка
Сообщения: 13173
Зарегистрирован: 08 янв 2012, 19:02

BBC: Век эгоизма. Часть 2 – Конструирование согласия / The Century of the Self. Part 2 - The Engineering of Consent (200

Сообщение Таточка » 11 ноя 2012, 12:07

BBC: Век эгоизма. Часть 2 – Конструирование согласия / The Century of the Self. Part 2 - The Engineering of Consent (2002) TVRip

Русское название: Век эгоизма. Часть 2 – Конструирование согласия
Оригинальное название: The Century of the Self. Part 2 - The Engineering of Consent
Режиссер / Телекомпания: Адам Кёртис
Год выпуска: 2002
Жанр: Документальный

Описание:
Это – история о том, как идеи Зигмунда Фрейда о бессознательном были использованы элитой в послевоенной Америке, чтобы проводить эксперименты над массами людей и управлять ими. Политики и их советники пришли к убеждению, что Фрейд был прав, предполагая, что глубоко внутри каждого человека скрыты опасные иррациональные желания и страхи. Они были убеждены, что именно высвобождение этих инстинктов привело к варварству в
нацистской Германии.
Чтобы никогда не допустить повторения подобного, они начали поиски методов, позволяющих контролировать этого врага, скрытого в недрах человеческого сознания. В центре нашей истории находятся дочь Зигмунда Фрейда, Анна, и его племянник Эдвард Бернейс, который изобрел профессию пиарщика. Их идеи были использованы американским правительством, крупным бизнесом и ЦРУ, чтобы разработать приемы контроля и управления сознанием людей в Америке.
Стоящие у власти верили, что единственным методом, который мог бы заставить демократию работать и привести к стабильному обществу, было подавление дикого варварства, которое притаилось почти за самым фасадом нормальной американской жизни.
Библия 21 века DVD-Video №1 - Новый мировой порядок
Высшая Социология (Григорий Климов)
Князь Мира Сего - Григорий Климов
Психиатрия индустрия смерти
Релиз:

Участники: Вернер Эрхард, Мартин С. Бергманн, Тони Блэр, Билл Клинтон, Адам Кертис, Роберт Рич, Вильгельм Райх

Продолжительность: 00:58:52

Перевод: Одноголосый закадровый, профессиональный

Видеокодек: DivX 4/5/6
Битрейт видео: ~672 kbps
Размер кадра: 640x480 (1.33:1)
Качество видео: TVRip
Битрейт аудио: 64.00 kbps
Format : AVI
Format/Info : Audio Video Interleave
File size : 315 MiB
Duration : 58mn 52s
Overall bit rate : 747 Kbps
Writing application : VirtualDubMod 1.5.10.2 (build 2542/release)
Writing library : VirtualDubMod build 2542/release

Video
ID : 0
Format : MPEG-4 Visual
Format settings, BVOP : 3
Format settings, QPel : No
Format settings, GMC : No warppoints
Format settings, Matrix : Default (H.263)
Muxing mode : Packed bitstream
Codec ID : DX50
Codec ID/Hint : DivX 5
Duration : 58mn 52s
Bit rate : 672 Kbps
Width : 640 pixels
Height : 480 pixels
Display aspect ratio : 4:3
Frame rate : 29.970 fps
Color space : YUV
Chroma subsampling : 4:2:0
Bit depth : 8 bits
Scan type : Progressive
Compression mode : Lossy
Bits/(Pixel*Frame) : 0.073
Stream size : 283 MiB (90%)
Writing library : DivX 6.8.5 (UTC 2009-08-20)

Audio
ID : 1
Format : MPEG Audio
Format version : Version 1
Format profile : Layer 3
Codec ID : 55
Codec ID/Hint : MP3
Duration : 58mn 51s
Bit rate mode : Constant
Bit rate : 64.0 Kbps
Channel(s) : 1 channel
Sampling rate : 48.0 KHz
Compression mode : Lossy
Stream size : 26.9 MiB (9%)
Alignment : Split accross interleaves
Interleave, duration : 33 ms (1.00 video frame)
Interleave, preload duration : 500 ms
Скриншоты:


Время раздачи: 24/7
У вас нет необходимых прав для просмотра вложений в этом сообщении.