BBC: Век эгоизма. Часть 1 – Машины счастья / The Century of the Self. Part 1 - Happiness machines (2002) DVDRip

Телеканал, документальные фильмы
Торрент Сидеров Личеров Размер
torrent_39550.torrent
0 0 307.86 МБ
Аватара пользователя
Таточка
Сообщения: 13173
Зарегистрирован: 08 янв 2012, 19:02

BBC: Век эгоизма. Часть 1 – Машины счастья / The Century of the Self. Part 1 - Happiness machines (2002) DVDRip

Сообщение Таточка » 11 ноя 2012, 12:07

BBC: Век эгоизма. Часть 1 – Машины счастья / The Century of the Self. Part 1 - Happiness machines (2002) DVDRip

Русское название: Век эгоизма. Часть 1 – Машины счастья
Оригинальное название: The Century of the Self. Part 1 - Happiness machines
Режиссер / Телекомпания: Адам Кёртис
Год выпуска: 2002
Жанр: Документальный

Описание:
Сто лет назад Зигмунд Фрейд выдвинул новую теорию о природе человека. Он говорил, что обнаружил, “примитивные сексуальные и агрессивные силы, спрятанные глубоко в сознании всего человечества”. Силы, которые если их не контролировать, ведут людей и общество к хаосу и разрушению. Эта серия фильмов о том, как правящие элиты, использовали теории Фрейда, чтобы контролировать опасную толпу в эпоху всеобщей демократии.
Эта серия об американском племяннике Фрейда, Эдварде Бернейсе. Сегодня Бернейс совершенно никому не известен, но его влияние на 20 столетие было почти таким же значительным, как и его дяди. Потому что Бернейс был первым, кто взял идеи Фрейда о людях и использовал их для манипуляции массами.
Он впервые показал американским корпорациям, как они могут заставить людей хотеть вещи, в которых они не нуждаются, связывая массовое производство товаров с подсознательными желаниями. Исходя из этого, появилась новая политическая идея о том, как контролировать массы людей. Удовлетворяя внутренние человеческие эгоистичные желания, их делали счастливыми. Это было началом для всепоглощающего эгоизма, который сейчас доминирует в нашем мире.
Библия 21 века DVD-Video №1 - Новый мировой порядок
Высшая Социология (Григорий Климов)
Князь Мира Сего - Григорий Климов
Психиатрия индустрия смерти
Релиз:

Участники: Вернер Эрхард, Мартин С. Бергманн, Тони Блэр, Билл Клинтон, Адам Кертис, Роберт Рич, Вильгельм Райх

Продолжительность: 00:58:52

Перевод: Одноголосый закадровый, профессиональный

Видеокодек: DivX 4/5/6
Битрейт видео: ~655 kbps avg
Размер кадра: 640x480 (1.33:1)
Качество видео: DVDRip
Аудиокодек: MP3
Битрейт аудио: 64.00 kbps avg
Format: AVI
Format/Info: Audio Video Interleave
File size: 308 MiB
Duration: 58mn 52s
Overall bit rate: 731 Kbps
Writing application: VirtualDubMod 1.5.10.2 (build 2542/release)
Writing library: VirtualDubMod build 2542/release

Video
ID: 0
Format: MPEG-4 Visual
Format settings, BVOP: 3
Format settings, QPel: No
Format settings, GMC: No warppoints
Format settings, Matrix: Default (H.263)
Muxing mode: Packed bitstream
Codec ID: DX50
Codec ID/Hint: DivX 5
Duration: 58mn 52s
Bit rate: 655 Kbps
Width: 640 pixels
Height: 480 pixels
Display aspect ratio: 4:3
Frame rate: 29.970 fps
Color space: YUV
Chroma subsampling: 4:2:0
Bit depth: 8 bits
Scan type: Progressive
Compression mode: Lossy
Bits/(Pixel*Frame): 0.071
Stream size: 276 MiB (90%)
Writing library: DivX 6.8.5 (UTC 2009-08-20)

Audio
ID: 1
Format: MPEG Audio
Codec ID: 55
Codec ID/Hint: MP3
Duration: 58mn 52s
Bit rate: 64.0 Kbps
Channel(s): 1 channel
Sampling rate: 48.0 KHz
Compression mode: Lossy
Stream size: 27.0 MiB (9%)
Alignment: Split accross interleaves
Interleave, duration: 33 ms (1.00 video frame)
Interleave, preload duration: 500 ms
Скриншоты:


Время раздачи: 24/7
У вас нет необходимых прав для просмотра вложений в этом сообщении.