Война против науки / BBC Horizon. A War On Science (James van der Pool) [2006, Документальный, научно-популярный, TVRip]

Телеканал, документальные фильмы
Торрент Сидеров Личеров Размер
torrent_40321.torrent
0 0 515.5 МБ
Аватара пользователя
Нюша
Сообщения: 6370
Зарегистрирован: 15 янв 2012, 16:08

Война против науки / BBC Horizon. A War On Science (James van der Pool) [2006, Документальный, научно-популярный, TVRip]

Сообщение Нюша » 11 ноя 2012, 22:46

Война против науки / BBC Horizon. A War On ScienceГод выпуска: 2006
Страна: Великобритания
Жанр: Документальный, научно-популярный
Продолжительность: 49:19
Перевод: Одноголосый закадровый Хуан Рохас (блог)
Русские субтитры: нет
Режиссер: James van der Pool
Описание: Теория эволюции подвергается нападкам со стороны приверженцев новой идеи, так называемой теории "Разумного замысла". Но насколько она научна сама по себе?
Когда Чарльз Дарвин опубликовал своё "Происхождение видов" почти 150 лет назад, он разрушил догмат своего времени - что люди были результатом божественного творения. Через свои наблюдения природы, Дарвин выдвинул теорию эволюции путем естественного отбора. Этот вызвало шумиху . Ведь если история сотворения может быть поставлена под сомнение, то же самое может грозить самому факту существования творца. С момента своего возникновения этот краеугольный камень биологии выдерживал атаки волну за волной. Сейчас некоторые ученые опасаются, что перед теорией эволюции встала наиболее сложная задача, а именно: спорная новая теория называемая "Разумным замыслом".

Релиз Психоделического Монастыря
Перевод: Григорий Чудов
Озвучание: Хуан Рохас
Сэмпл:
Качество: TVRip
Формат: AVI
Видео кодек: XviD
Аудио кодек: MP3
Видео: XviD, 640*416, 2:3, 1123 Кбит/сек, 25,000 кадр/сек
Аудио: mp3 192 Kbps, 48 kHz, 2 channels (русский)
Аудио 2: mp3 128 Kbps, 48 kHz, 2 channels (английский)
Если кто-то отыщет рип получше (мне не удалось, этот наилучший из доступных) - свистите, смонтирую со звуком и пустим в массы
MediaInfo
Формат : AVI
Формат/Информация : Audio Video Interleave
Размер файла : 516 Мбайт
Продолжительность : 49 м.
Общий поток : 1458 Кбит/сек
Программа кодирования : VirtualDubMod 1.5.10.2 (build 2540/release)
Библиотека кодирования : VirtualDubMod build 2540/release
Видео
Идентификатор : 0
Формат : MPEG-4 Visual
Профиль формата : Advanced Simple@L5
Параметр BVOP формата : 2
Параметр QPel формата : Нет
Параметр GMC формата : Без точки перехода
Параметр матрицы формата : Default (H.263)
Идентификатор кодека : XVID
Идентификатор кодека/Подсказка : XviD
Продолжительность : 49 м.
Битрейт : 1123 Кбит/сек
Ширина : 640 пикс.
Высота : 416 пикс.
Соотношение сторон : 3:2
Частота кадров : 25,000 кадр/сек
Цветовое пространство : YUV
Подвыборка цветности : 4:2:0
Битовая глубина : 8 бит
Тип развёртки : Прогрессивная
Метод сжатия : С потерями
Бит/(Пиксели*Кадры) : 0.169
Размер потока : 397 Мбайт (77%)
Библиотека кодирования : XviD 1.1.0 (UTC 2005-11-22)
Аудио #1
Идентификатор : 1
Формат : MPEG Audio
Версия формата : Version 1
Профиль формата : Layer 3
Режим : Joint stereo
Идентификатор кодека : 55
Идентификатор кодека/Подсказка : MP3
Продолжительность : 49 м.
Вид битрейта : Постоянный
Битрейт : 192 Кбит/сек
Каналы : 2 канала
Частота : 48,0 КГц
Метод сжатия : С потерями
Размер потока : 67,9 Мбайт (13%)
Выравнивание : Соединение по промежуткам
Продолжительность промежутка : 40 мс. (1,00 видеокадр)
Время предзагрузки промежутка : 504 ms
Аудио #2
Идентификатор : 2
Формат : MPEG Audio
Версия формата : Version 1
Профиль формата : Layer 3
Режим : Joint stereo
Расширение режима : MS Stereo
Идентификатор кодека : 55
Идентификатор кодека/Подсказка : MP3
Продолжительность : 49 м.
Вид битрейта : Постоянный
Битрейт : 128 Кбит/сек
Каналы : 2 канала
Частота : 48,0 КГц
Метод сжатия : С потерями
Размер потока : 45,3 Мбайт (9%)
Выравнивание : Разделение по промежуткам
Продолжительность промежутка : 40 мс. (1,00 видеокадр)
Время предзагрузки промежутка : 500 ms
Скриншот с названием
Скриншоты
У вас нет необходимых прав для просмотра вложений в этом сообщении.