Леонид Огурцов | Как настроить гитару [2011] DVDRip

Гитара, бас гитара, балалайка, скрипка, виолончель и т.д.
Торрент Сидеров Личеров Размер
torrent_41326.torrent
22 2 267.93 МБ
Аватара пользователя
Таточка
Сообщения: 13173
Зарегистрирован: 08 янв 2012, 19:02

Леонид Огурцов | Как настроить гитару [2011] DVDRip

Сообщение Таточка » 16 дек 2012, 00:08

Леонид Огурцов | Как правильно настроить гитару [2011] DVDRip

Автор: Леонид Огурцов
Название: Как правильно настроить гитару
Год выпуска: 2011
Жанр: Обучающее видео

Качество видео: DVDRip
Общая продолжительность: 01:00:03
Видеокодек: MPEG-4
Битрейт видео: ~511 Кбит/сек
Размер кадра: 640х480
Аудиокодек: AAC, 2 ch
Битрейт аудио: 125 Кбит/сек

Описание:
Видеокурс Как настроить гитару обучит Вас как без помощи других настраивать гитару.Если Вы уже хорошо играете на гитаре, или покуда еще начинающий в этом деле — этот курс в одинаковой мере окажется Вам полезным. Вы можете настраивать гитару " на слух ", научитесь настраивать гитару с помощью программ и тюнеров а еще узнаете, что делать, если гитара не строится.
Содержание видеокурса Как настроить гитару:

Видеоурок 1. Основные термины и понятия
В этом видеоуроке будет рассказано об устройстве гитары, детально раскрыто понятие «строй гитары». Показано, на какой ноте должна звучать каждая струна.

2. Настраиваем гитару по эталонному звучанию нот:
В этом уроке будет показано, как настроить гитару по эталонному звучанию нот. Где взять записи эталонного звучания.

3. Последовательная настройка струн гитары:
В этом уроке Вы будете настраивать способом привязки звучания струны к другим уже настроенным струнам.

4. Авторский метод:
О том, как автор сам настраивает гитару с учётом знания о расположении нот. Достаточно точный способ настройки.

5. Настройка гитары с помощью гитарного тюнера:
В этом уроке автор разберёт способ настройки гитары с помощью программ-тюнеров. Идеально подходит для новичков и начинающих «без слуха».

6. Что делать, если гитара «не строится»:
Здесь будет рассказано о технических моментах отладки гитары, из-за которых она не может быть настроена без предварительного ремонта. Одновременно узнаете, на что обращать внимание при покупке гитары.
Торрент-файл был перезалит! Просьба скачать заново!
Общее
Полное имя: Как настроить гитару\Урок 1.mp4
Формат: MPEG-4
Профиль формата: Base Media / Version 2
Идентификатор кодека: mp42
Размер файла: 23,8 Мбайт
Продолжительность: 5 м. 12 с.
Режим общего битрейта: Переменный
Общий поток: 638 Кбит/сек
Дата кодирования: UTC 2011-01-26 11:11:58
Дата пометки: UTC 2011-01-26 11:12:00
Программа кодирования: mp4creator 1.6.1d

Видео
Идентификатор: 1
Формат: MPEG-4 Visual
Профиль формата: Simple@L1
Параметр BVOP формата: Нет
Параметр QPel формата: Нет
Параметр GMC формата: Без точки перехода
Параметр матрицы формата: Default (H.263)
Идентификатор кодека: 20
Продолжительность: 5 м. 12 с.
Вид битрейта: Переменный
Битрейт: 511 Кбит/сек
Максимальный битрейт: 1851 Кбит/сек
Ширина: 640 пикселей
Высота: 480 пикселей
Соотношение сторон: 4:3
Режим частоты кадров: Постоянный
Частота кадров: 25,000 кадров/сек
Цветовое пространство: YUV
Субдискретизация насыщенности: 4:2:0
Битовая глубина: 8 бит
Тип развёртки: Прогрессивная
Метод сжатия: С потерями
Бит/(Пиксели*Кадры): 0.067
Размер потока: 19,1 Мбайт (80%)
Язык: English
Дата кодирования: UTC 2011-01-26 11:11:58
Дата пометки: UTC 2011-01-26 11:12:00

Аудио
Идентификатор: 2
Формат: AAC
Формат/Информация: Advanced Audio Codec
Профиль формата: LC
Идентификатор кодека: 40
Продолжительность: 5 м. 12 с.
Вид битрейта: Переменный
Битрейт: 125 Кбит/сек
Максимальный битрейт: 229 Кбит/сек
Каналы: 2 канала
Расположение каналов: Front: L R
Частота: 44,1 КГц
Метод сжатия: С потерями
Размер потока: 4,64 Мбайт (20%)
Язык: English
Дата кодирования: UTC 2011-01-26 11:12:00
Дата пометки: UTC 2011-01-26 11:12:00
Material_Duration: 312726
Material_StreamSize: 4867191
Скриншоты:

Время раздачи: До 5-ти скачавших
У вас нет необходимых прав для просмотра вложений в этом сообщении.