Эльдар Гузаиров | Уроки игры на гитаре (проект "Я Гитарист") [2011] CamRip

Гитара, бас гитара, балалайка, скрипка, виолончель и т.д.
Торрент Сидеров Личеров Размер
torrent_41327.torrent
1 4 422.39 МБ
Аватара пользователя
Таточка
Сообщения: 13173
Зарегистрирован: 08 янв 2012, 19:02

Эльдар Гузаиров | Уроки игры на гитаре (проект "Я Гитарист") [2011] CamRip

Сообщение Таточка » 16 дек 2012, 00:08

Эльдар Гузаиров | Уроки игры на гитаре (проект "Я Гитарист") [2011] CamRip

Название: Уроки игры на гитаре (проект "Я Гитарист")
Год выпуска: 2011
Автор (режиссер): Эльдар Гузаиров
Жанр: Обучающий видеокурс

Описание:
Не смотря на то, что видеокурс довольно короткий, информация в
нем направленна на ДЕЙСТВИЕ.
Возьмите прямо сегодня гитару в руки, включайте данные уроки
и начинайте играть.
У Вас все получится!
Успехов Вам!

Качество видео: CamRip
Продолжительность: 6 видеоуроков длиной от 2 до 7 минут.

Видеокодек: MP4
Битрейт видео: ~2022 Кбит/сек
Размер кадра: 1280 х 720
Аудиокодек: AAC
Битрейт аудио: 128 Кбит/сек
Урок # 1 - Перед стартом.
Урок # 2 - Три базовых аккорда
Урок # 3 - Самая простая мелодия
Урок # 4 - Различные виды переборов
Урок # 5 - Виды боя
Урок # 6 - Что делать дальше?
Общее
Полное имя: D:\загрузки\Проект Я Гитарист\Урок # 1 - Перед стартом.mp4
Формат: MPEG-4
Профиль формата: Base Media / Version 2
Идентификатор кодека: mp42
Размер файла: 97,1 Мбайт
Продолжительность: 6 м. 18 с.
Режим общего битрейта: Переменный
Общий поток: 2154 Кбит/сек
Дата кодирования: UTC 2011-03-27 09:15:59
Дата пометки: UTC 2011-03-27 09:15:59
gsst: 0
gstd: 378120
gssd: B4A7DD7A2HH1331400238505800
gshh: alt1.v2.cache6.c.youtube.com

Видео
Идентификатор: 1
Формат: AVC
Формат/Информация: Advanced Video Codec
Профиль формата:
Параметр CABAC формата: Да
Параметр ReFrames формата: 1 кадр
Параметр GOP формата: M=1, N=30
Идентификатор кодека: avc1
Идентификатор кодека/Информация: Advanced Video Coding
Продолжительность: 6 м. 18 с.
Битрейт: 2022 Кбит/сек
Максимальный битрейт: 4168 Кбит/сек
Ширина: 1280 пикселей
Высота: 720 пикселей
Соотношение сторон: 16:9
Режим частоты кадров: Постоянный
Частота кадров: 25,000 кадров/сек
Цветовое пространство: YUV
Субдискретизация насыщенности: 4:2:0
Битовая глубина: 8 бит
Тип развёртки: Прогрессивная
Бит/(Пиксели*Кадры): 0.088
Размер потока: 91,1 Мбайт (94%)
Дата пометки: UTC 2011-03-27 09:16:04

Аудио
Идентификатор: 2
Формат: AAC
Формат/Информация: Advanced Audio Codec
Профиль формата: LC
Идентификатор кодека: 40
Продолжительность: 6 м. 18 с.
Вид битрейта: Переменный
Битрейт: 128 Кбит/сек
Максимальный битрейт: 143 Кбит/сек
Каналы: 2 канала
Расположение каналов: Front: L R
Частота: 44,1 КГц
Метод сжатия: С потерями
Размер потока: 5,77 Мбайт (6%)
Заголовок: (C) 2007 Google Inc. v08.13.2007.
Дата кодирования: UTC 2011-03-27 09:16:01
Дата пометки: UTC 2011-03-27 09:16:04
Общее
Полное имя: D:\загрузки\Проект Я Гитарист\Урок # 2 - Три базовых аккорда.mp4
Формат: MPEG-4
Профиль формата: Base Media / Version 2
Идентификатор кодека: mp42
Размер файла: 70,0 Мбайт
Продолжительность: 3 м. 13 с.
Режим общего битрейта: Переменный
Общий поток: 3039 Кбит/сек
Дата кодирования: UTC 2011-03-27 09:32:42
Дата пометки: UTC 2011-03-27 09:32:42
gsst: 0
gstd: 193280
gssd: B4A7DDA63HH1331401144614501
gshh: v3.cache4.c.youtube.com

Видео
Идентификатор: 1
Формат: AVC
Формат/Информация: Advanced Video Codec
Профиль формата:
Параметр CABAC формата: Да
Параметр ReFrames формата: 1 кадр
Параметр GOP формата: M=1, N=30
Идентификатор кодека: avc1
Идентификатор кодека/Информация: Advanced Video Coding
Продолжительность: 3 м. 13 с.
Битрейт: 2907 Кбит/сек
Максимальный битрейт: 4798 Кбит/сек
Ширина: 1280 пикселей
Высота: 720 пикселей
Соотношение сторон: 16:9
Режим частоты кадров: Постоянный
Частота кадров: 25,000 кадров/сек
Цветовое пространство: YUV
Субдискретизация насыщенности: 4:2:0
Битовая глубина: 8 бит
Тип развёртки: Прогрессивная
Бит/(Пиксели*Кадры): 0.126
Размер потока: 67,0 Мбайт (96%)
Дата пометки: UTC 2011-03-27 09:32:47

Аудио
Идентификатор: 2
Формат: AAC
Формат/Информация: Advanced Audio Codec
Профиль формата: LC
Идентификатор кодека: 40
Продолжительность: 3 м. 13 с.
Вид битрейта: Переменный
Битрейт: 128 Кбит/сек
Максимальный битрейт: 147 Кбит/сек
Каналы: 2 канала
Расположение каналов: Front: L R
Частота: 44,1 КГц
Метод сжатия: С потерями
Размер потока: 2,95 Мбайт (4%)
Заголовок: (C) 2007 Google Inc. v08.13.2007.
Дата кодирования: UTC 2011-03-27 09:32:45
Дата пометки: UTC 2011-03-27 09:32:47
Общее
Полное имя: D:\загрузки\Проект Я Гитарист\Урок # 3 - Самая простая мелодия.mp4
Формат: MPEG-4
Профиль формата: Base Media / Version 2
Идентификатор кодека: mp42
Размер файла: 57,2 Мбайт
Продолжительность: 2 м. 40 с.
Режим общего битрейта: Переменный
Общий поток: 2998 Кбит/сек
Дата кодирования: UTC 2011-03-21 00:47:31
Дата пометки: UTC 2011-03-21 00:47:31
gsst: 0
gstd: 160120
gssd: B4A7D0F65HH1331402054660621
gshh: o-o.preferred.ams03s07.v17.lscache8.c.youtube.com

Видео
Идентификатор: 1
Формат: AVC
Формат/Информация: Advanced Video Codec
Профиль формата:
Параметр CABAC формата: Да
Параметр ReFrames формата: 1 кадр
Параметр GOP формата: M=1, N=30
Идентификатор кодека: avc1
Идентификатор кодека/Информация: Advanced Video Coding
Продолжительность: 2 м. 40 с.
Битрейт: 2865 Кбит/сек
Максимальный битрейт: 4906 Кбит/сек
Ширина: 1280 пикселей
Высота: 720 пикселей
Соотношение сторон: 16:9
Режим частоты кадров: Постоянный
Частота кадров: 25,000 кадров/сек
Цветовое пространство: YUV
Субдискретизация насыщенности: 4:2:0
Битовая глубина: 8 бит
Тип развёртки: Прогрессивная
Бит/(Пиксели*Кадры): 0.124
Размер потока: 54,7 Мбайт (96%)
Дата пометки: UTC 2011-03-21 00:47:34

Аудио
Идентификатор: 2
Формат: AAC
Формат/Информация: Advanced Audio Codec
Профиль формата: LC
Идентификатор кодека: 40
Продолжительность: 2 м. 40 с.
Вид битрейта: Переменный
Битрейт: 128 Кбит/сек
Максимальный битрейт: 154 Кбит/сек
Каналы: 2 канала
Расположение каналов: Front: L R
Частота: 44,1 КГц
Метод сжатия: С потерями
Размер потока: 2,44 Мбайт (4%)
Заголовок: (C) 2007 Google Inc. v08.13.2007.
Дата кодирования: UTC 2011-03-21 00:47:33
Дата пометки: UTC 2011-03-21 00:47:34
Общее
Полное имя: D:\загрузки\Проект Я Гитарист\Урок # 4 - Различные виды переборов.mp4
Формат: MPEG-4
Профиль формата: Base Media / Version 2
Идентификатор кодека: mp42
Размер файла: 65,2 Мбайт
Продолжительность: 4 м. 33 с.
Режим общего битрейта: Переменный
Общий поток: 1996 Кбит/сек
Дата кодирования: UTC 2011-03-27 10:29:17
Дата пометки: UTC 2011-03-27 10:29:17
gsst: 0
gstd: 273840
gssd: B4A7D0FC3HH1331403313052195
gshh: o-o.preferred.ams03s07.v13.lscache2.c.youtube.com

Видео
Идентификатор: 1
Формат: AVC
Формат/Информация: Advanced Video Codec
Профиль формата:
Параметр CABAC формата: Да
Параметр ReFrames формата: 1 кадр
Параметр GOP формата: M=1, N=30
Идентификатор кодека: avc1
Идентификатор кодека/Информация: Advanced Video Coding
Продолжительность: 4 м. 33 с.
Битрейт: 1864 Кбит/сек
Максимальный битрейт: 5592 Кбит/сек
Ширина: 1280 пикселей
Высота: 720 пикселей
Соотношение сторон: 16:9
Режим частоты кадров: Постоянный
Частота кадров: 25,000 кадров/сек
Цветовое пространство: YUV
Субдискретизация насыщенности: 4:2:0
Битовая глубина: 8 бит
Тип развёртки: Прогрессивная
Бит/(Пиксели*Кадры): 0.081
Размер потока: 60,8 Мбайт (93%)
Дата пометки: UTC 2011-03-27 10:29:22

Аудио
Идентификатор: 2
Формат: AAC
Формат/Информация: Advanced Audio Codec
Профиль формата: LC
Идентификатор кодека: 40
Продолжительность: 4 м. 33 с.
Вид битрейта: Переменный
Битрейт: 128 Кбит/сек
Максимальный битрейт: 145 Кбит/сек
Каналы: 2 канала
Расположение каналов: Front: L R
Частота: 44,1 КГц
Метод сжатия: С потерями
Размер потока: 4,18 Мбайт (6%)
Заголовок: (C) 2007 Google Inc. v08.13.2007.
Дата кодирования: UTC 2011-03-27 10:29:20
Дата пометки: UTC 2011-03-27 10:29:22
Видео
Идентификатор: 1
Формат: AVC
Формат/Информация: Advanced Video Codec
Профиль формата:
Параметр CABAC формата: Да
Параметр ReFrames формата: 1 кадр
Параметр GOP формата: M=1, N=30
Идентификатор кодека: avc1
Идентификатор кодека/Информация: Advanced Video Coding
Продолжительность: 3 м. 38 с.
Битрейт: 2870 Кбит/сек
Максимальный битрейт: 5268 Кбит/сек
Ширина: 1280 пикселей
Высота: 720 пикселей
Соотношение сторон: 16:9
Режим частоты кадров: Постоянный
Частота кадров: 25,000 кадров/сек
Цветовое пространство: YUV
Субдискретизация насыщенности: 4:2:0
Битовая глубина: 8 бит
Тип развёртки: Прогрессивная
Бит/(Пиксели*Кадры): 0.125
Размер потока: 74,6 Мбайт (96%)
Дата пометки: UTC 2011-03-27 19:32:07

Аудио
Идентификатор: 2
Формат: AAC
Формат/Информация: Advanced Audio Codec
Профиль формата: LC
Идентификатор кодека: 40
Продолжительность: 3 м. 37 с.
Вид битрейта: Переменный
Битрейт: 128 Кбит/сек
Максимальный битрейт: 156 Кбит/сек
Каналы: 2 канала
Расположение каналов: Front: L R
Частота: 44,1 КГц
Метод сжатия: С потерями
Размер потока: 3,33 Мбайт (4%)
Заголовок: (C) 2007 Google Inc. v08.13.2007.
Дата кодирования: UTC 2011-03-27 19:32:06
Дата пометки: UTC 2011-03-27 19:32:07
Общее
Полное имя: D:\загрузки\Проект Я Гитарист\Урок # 6 - Что делать дальше.mp4
Формат: MPEG-4
Профиль формата: Base Media / Version 2
Идентификатор кодека: mp42
Размер файла: 54,8 Мбайт
Продолжительность: 3 м. 0 с.
Режим общего битрейта: Переменный
Общий поток: 2554 Кбит/сек
Дата кодирования: UTC 2011-03-21 01:22:48
Дата пометки: UTC 2011-03-21 01:22:48
gsst: 0
gstd: 180030
gssd: B4A7DDA22HH1331405338426355
gshh: v2.cache2.c.youtube.com

Видео
Идентификатор: 1
Формат: AVC
Формат/Информация: Advanced Video Codec
Профиль формата:
Параметр CABAC формата: Да
Параметр ReFrames формата: 1 кадр
Параметр GOP формата: M=1, N=30
Идентификатор кодека: avc1
Идентификатор кодека/Информация: Advanced Video Coding
Продолжительность: 3 м. 0 с.
Битрейт: 2424 Кбит/сек
Максимальный битрейт: 4510 Кбит/сек
Ширина: 1280 пикселей
Высота: 720 пикселей
Соотношение сторон: 16:9
Режим частоты кадров: Переменный
Частота кадров: 29,970 кадров/сек
Минимальная частота кадров: 29,412 кадров/сек
Максимальная частота кадров: 200,000 кадров/сек
Цветовое пространство: YUV
Субдискретизация насыщенности: 4:2:0
Битовая глубина: 8 бит
Тип развёртки: Прогрессивная
Бит/(Пиксели*Кадры): 0.088
Размер потока: 52,0 Мбайт (95%)
Дата пометки: UTC 2011-03-21 01:22:54

Аудио
Идентификатор: 2
Формат: AAC
Формат/Информация: Advanced Audio Codec
Профиль формата: LC
Идентификатор кодека: 40
Продолжительность: 2 м. 59 с.
Вид битрейта: Переменный
Битрейт: 124 Кбит/сек
Максимальный битрейт: 154 Кбит/сек
Каналы: 2 канала
Расположение каналов: Front: L R
Частота: 44,1 КГц
Метод сжатия: С потерями
Размер потока: 2,65 Мбайт (5%)
Заголовок: (C) 2007 Google Inc. v08.13.2007.
Дата кодирования: UTC 2011-03-21 01:22:52
Дата пометки: UTC 2011-03-21 01:22:54
Скриншоты:


Время раздачи: С 8:00 до 23:00
У вас нет необходимых прав для просмотра вложений в этом сообщении.