Никита Глухов | Учимся играть ДДТ Ветер(проект "Я Гитарист") [2011] CamRip

Гитара, бас гитара, балалайка, скрипка, виолончель и т.д.
Торрент Сидеров Личеров Размер
torrent_41329.torrent
1 2 96.67 МБ
Аватара пользователя
Таточка
Сообщения: 13173
Зарегистрирован: 08 янв 2012, 19:02

Никита Глухов | Учимся играть ДДТ Ветер(проект "Я Гитарист") [2011] CamRip

Сообщение Таточка » 16 дек 2012, 00:08

Никита Глухов | Учимся играть ДДТ Ветер(проект "Я Гитарист") [2011] CamRip

Автор (режиссер): Никита Глухов
Название: Учимся играть ДДТ Ветер(проект "Я Гитарист")
Год выпуска: 2011
Жанр: Обучающий видеокурс
Качество видео: CamRip
Продолжительность: 6 м. 36 с.
Видеокодек: MP4
Битрейт видео: ~1887 Кбит/сек
Размер кадра: 1280 х 720
Аудиокодек: AAC
Битрейт аудио: 152 Кбит/сек

Описание:
В этом выпуске проекта "Я Гитарист" Никита Глухов научит играть вас композицию Ветер в исполнении группы ДДТ.
Успехов Вам!
Общее
Полное имя: D:\загрузки\ДДТ Ветер Видеоурок.mp4
Формат: MPEG-4
Профиль формата: Base Media / Version 2
Идентификатор кодека: mp42
Размер файла: 96,7 Мбайт
Продолжительность: 6 м. 36 с.
Режим общего битрейта: Переменный
Общий поток: 2044 Кбит/сек
Дата кодирования: UTC 2011-04-13 19:11:06
Дата пометки: UTC 2011-04-13 19:11:06
gsst: 0
gstd: 396760
gssd: BADC212A2HH1331565337332901
gshh: o-o.preferred.fra02s05.v7.lscache5.c.youtube.com

Видео
Идентификатор: 1
Формат: AVC
Формат/Информация: Advanced Video Codec
Профиль формата:
Параметр CABAC формата: Да
Параметр ReFrames формата: 1 кадр
Параметр GOP формата: M=1, N=30
Идентификатор кодека: avc1
Идентификатор кодека/Информация: Advanced Video Coding
Продолжительность: 6 м. 36 с.
Битрейт: 1887 Кбит/сек
Максимальный битрейт: 3098 Кбит/сек
Ширина: 1280 пикселей
Высота: 720 пикселей
Соотношение сторон: 16:9
Режим частоты кадров: Постоянный
Частота кадров: 25,000 кадров/сек
Цветовое пространство: YUV
Субдискретизация насыщенности: 4:2:0
Битовая глубина: 8 бит
Тип развёртки: Прогрессивная
Бит/(Пиксели*Кадры): 0.082
Размер потока: 89,3 Мбайт (92%)
Дата пометки: UTC 2011-04-13 19:11:12

Аудио
Идентификатор: 2
Формат: AAC
Формат/Информация: Advanced Audio Codec
Профиль формата: LC
Идентификатор кодека: 40
Продолжительность: 6 м. 36 с.
Вид битрейта: Переменный
Битрейт: 152 Кбит/сек
Максимальный битрейт: 190 Кбит/сек
Каналы: 2 канала
Расположение каналов: Front: L R
Частота: 44,1 КГц
Метод сжатия: С потерями
Размер потока: 7,19 Мбайт (7%)
Заголовок: (C) 2007 Google Inc. v08.13.2007.
Дата кодирования: UTC 2011-04-13 19:11:10
Дата пометки: UTC 2011-04-13 19:11:12
Скриншоты:


Время раздачи: С 8:00 до 23:00
У вас нет необходимых прав для просмотра вложений в этом сообщении.