Никита Глухов | Учимся играть Ышо Ышо "Пришла весна"(проект "Я Гитарист") [2011] CamRip

Гитара, бас гитара, балалайка, скрипка, виолончель и т.д.
Торрент Сидеров Личеров Размер
torrent_41333.torrent
1 2 128.02 МБ
Аватара пользователя
Таточка
Сообщения: 13173
Зарегистрирован: 08 янв 2012, 19:02

Никита Глухов | Учимся играть Ышо Ышо "Пришла весна"(проект "Я Гитарист") [2011] CamRip

Сообщение Таточка » 16 дек 2012, 00:08

Никита Глухов | Учимся играть Ышо Ышо "Пришла весна"(проект "Я Гитарист") [2011] CamRip

Название: Учимся играть Ышо Ышо "Пришла весна"(проект "Я Гитарист")
Год выпуска: 2011
Автор (режиссер): Никита Глухов
Жанр: Обучающий видеокурс

Описание:
В этом выпуске проекта "Я Гитарист" Никита Глухов научит играть вас композицию "Пришла весна" в исполнении группы Ышо Ышо.
Успехов Вам!

Качество видео: CamRip
Продолжительность: 7 м. 20 с.

Видеокодек: MP4
Битрейт видео: ~2285 Кбит/сек
Размер кадра: 1280 х 720
Аудиокодек: AAC
Битрейт аудио: 151 Кбит/сек
Общее
Полное имя: D:\загрузки\Проект Я Гитарист Видеоуроки\Ышо Ышо Пришла весна Видеоурок.mp4
Формат: MPEG-4
Профиль формата: Base Media / Version 2
Идентификатор кодека: mp42
Размер файла: 128 Мбайт
Продолжительность: 7 м. 20 с.
Режим общего битрейта: Переменный
Общий поток: 2439 Кбит/сек
Дата кодирования: UTC 2012-03-01 17:46:22
Дата пометки: UTC 2012-03-01 17:46:22
gsst: 0
gstd: 440320
gssd: BADC212A2HH1331564558231478
gshh: o-o.preferred.fra02s05.v7.lscache5.c.youtube.com

Видео
Идентификатор: 1
Формат: AVC
Формат/Информация: Advanced Video Codec
Профиль формата:
Параметр CABAC формата: Да
Параметр ReFrames формата: 1 кадр
Параметр GOP формата: M=1, N=30
Идентификатор кодека: avc1
Идентификатор кодека/Информация: Advanced Video Coding
Продолжительность: 7 м. 20 с.
Битрейт: 2285 Кбит/сек
Максимальный битрейт: 4384 Кбит/сек
Ширина: 1280 пикселей
Высота: 720 пикселей
Соотношение сторон: 16:9
Режим частоты кадров: Постоянный
Частота кадров: 25,000 кадров/сек
Цветовое пространство: YUV
Субдискретизация насыщенности: 4:2:0
Битовая глубина: 8 бит
Тип развёртки: Прогрессивная
Бит/(Пиксели*Кадры): 0.099
Размер потока: 120 Мбайт (94%)
Дата пометки: UTC 2012-03-01 17:46:23

Аудио
Идентификатор: 2
Формат: AAC
Формат/Информация: Advanced Audio Codec
Профиль формата: LC
Идентификатор кодека: 40
Продолжительность: 7 м. 20 с.
Вид битрейта: Переменный
Битрейт: 151 Кбит/сек
Максимальный битрейт: 246 Кбит/сек
Каналы: 2 канала
Расположение каналов: Front: L R
Частота: 44,1 КГц
Метод сжатия: С потерями
Размер потока: 7,95 Мбайт (6%)
Заголовок: IsoMedia File Produced by Google, 5-11-2011
Дата кодирования: UTC 2012-03-01 17:46:23
Дата пометки: UTC 2012-03-01 17:46:23
Скриншоты:


Время раздачи: С 8:00 до 23:00
У вас нет необходимых прав для просмотра вложений в этом сообщении.