Дмитрий Агеев | Гитара. Уроки мастера для начинающих [2008] DVD5

Гитара, бас гитара, балалайка, скрипка, виолончель и т.д.
Торрент Сидеров Личеров Размер
torrent_41337.torrent
1 1 4.07 ГБ
Аватара пользователя
Таточка
Сообщения: 13173
Зарегистрирован: 08 янв 2012, 19:02

Дмитрий Агеев | Гитара. Уроки мастера для начинающих [2008] DVD5

Сообщение Таточка » 16 дек 2012, 00:09

Дмитрий Агеев | Гитара. Уроки мастера для начинающих [2008] DVD5

Автор (режиссер): Дмитрий Агеев
Название: Гитара. Уроки мастера для начинающих
Год выпуска: 2008
Жанр: Видео школа

Описание:
Видео школа игры на гитаре от Д. Агеева. Данный видеоматериал является ДВД приложением к одноименной книге, в которой очень подробно расписан курс обучения от начинающего гитариста, до уровня, позволяющего свободно владеть инструментом. Стоит отметить, что обучение построено на табулатурах (представлены только в книжном пособии), поэтому не требует знания нотной грамоты от обучающегося. Школа хорошая и более чем доступная для понимания, поможет быстро освоить гитару за пару месяцев.

Качество видео: DVD5
Продолжительность: 01:48:00
Видеокодек: MPEG-2
Битрейт видео: ~4000 kb/s, 25 FPS
Размер кадра: 720x576
Аудиокодек: AC3 2.0
Битрейт аудио: 192 kb/s

Отсутствуют дополнительные бонусы, субтитры, звуковые дорожки.
Format: MPEG-PS
File size: 1 024 MiB
Duration: 27mn 49s
Overall bit rate: 5 144 Kbps

Video
ID: 224 (0xE0)
Format: MPEG Video
Format version: Version 2
Format profile: Main@Main
Format settings, BVOP: Yes
Format settings, Matrix: Default
Format settings, GOP: M=3, N=12
Duration: 27mn 49s
Bit rate: 4 850 Kbps
Maximum bit rate: 4 867 Kbps
Width: 720 pixels
Height: 576 pixels
Display aspect ratio: 4:3
Frame rate: 25.000 fps
Standard: PAL
Color space: YUV
Chroma subsampling: 4:2:0
Bit depth: 8 bits
Scan type: Progressive
Compression mode: Lossy
Bits/(Pixel*Frame): 0.468
Stream size: 965 MiB (94%)

Audio
ID: 189 (0xBD)-128 (0x80)
Format: AC-3
Format/Info: Audio Coding 3
Mode extension: CM (complete main)
Muxing mode: DVD-Video
Duration: 27mn 49s
Bit rate mode: Constant
Bit rate: 192 Kbps
Channel(s): 2 channels
Channel positions: Front: L R
Sampling rate: 48.0 KHz
Bit depth: 16 bits
Compression mode: Lossy
Delay relative to video: -568ms
Stream size: 38.2 MiB (4%)
Скриншоты:

Время раздачи: с 18:00 до 23:00
У вас нет необходимых прав для просмотра вложений в этом сообщении.