Видео


Сообщение

Видео Детская энциклопедия: "Из чего это сделано?" (8 выпусков из 8) (2008) DVDRip

Сообщение Нюша » 16 дек 2012, 19:18

Детская энциклопедия: "Из чего это сделано?" (2008) DVDRip

Русское название: Детская энциклопедия: "Из чего это сделано?"
Год выпуска: 2008
Производство: США
Жанр: Детский, Видеоуроки, Развивающий
Перевод: Профессиональный двухголосый
Вид субтитров: Отсутствуют
Режиссер: Адриан Хедли

Описание фильма:
Твои родители слушали музыку на виниловых пластинках. Бабушка с дедушкой смотрели кино благодаря изобретению волшебного материала, из которого была сделана твоя первая погремушка и воздушный шарик. Из этого материала сделан и рисунок на твоем скейтборде, и даже подошвы твоих замечательных кроссовок!А что будет, если этот материал соединить со стеклом? Ты не поверишь, но лодка, на которой ты катался вместе с отцом летом и которую ты потом нарисовал в своем альбоме, изготовлена именно из этого материала! Да, кстати... а из чего сделаны страницы твоего альбома и... твоего любимого комикса? И какое отношение все это имеет к фейерверку в честь твоего дня рождения, который ты так ждешь? Смотри серию Детской энциклопедии "Из чего это сделано?" и ты убедишься, что звездное небо гораздо ближе, чем ты видишь его сквозь стекло своего окна. Не переставай удивляться, а мы поможем ответить тебе на все твои вопросы!

Продолжительность: 8 х ~ 00:14:00
Качество видео: DVDRip

Видео: MPEG4, XviD, 688x512 (4:3), 25.000 fps, 1 604 Kbps (0.182 bit/pixel)
Аудио: AC-3, 48.0 KHz, 2 ch, 192 Kbps, CBR
Видео
Идентификатор: 0
Формат: MPEG-4 Visual
Профиль формата: Advanced Simple@L5
Параметр BVOP формата: 1
Параметр QPel формата: Нет
Параметр GMC формата: Без точки перехода
Параметр матрицы формата: Default (H.263)
Режим смешивания: Сжатый битовый поток
Идентификатор кодека: XVID
Идентификатор кодека/Подсказка: XviD
Продолжительность: 13 м.
Битрейт: 1604 Кбит/сек
Ширина: 688 пикселей
Высота: 512 пикселей
Соотношение сторон: 4:3
Частота кадров: 25,000 кадров/сек
Цветовое пространство: YUV
Субдискретизация насыщенности: 4:2:0
Битовая глубина: 8 бит
Тип развёртки: Прогрессивная
Метод сжатия: С потерями
Бит/(Пиксели*Кадры): 0.182
Размер потока: 160 Мбайт (89%)
Библиотека кодирования: XviD 1.1.0 (UTC 2005-11-22)

Аудио
Идентификатор: 1
Формат: AC-3
Формат/Информация: Audio Coding 3
Расширение режима: CM (complete main)
Идентификатор кодека: 2000
Продолжительность: 13 м.
Вид битрейта: Постоянный
Битрейт: 192 Кбит/сек
Каналы: 2 канала
Расположение каналов: Front: L R
Частота: 48,0 КГц
Битовая глубина: 16 бит
Метод сжатия: С потерями
Размер потока: 19,2 Мбайт (11%)
Выравнивание: Соединение по промежуткам
Продолжительность промежутка: 40мс. (1,00 видеокадр)
Время предзагрузки промежутка: 512мс.
Скриншоты:


Время раздачи: с 11:00 до 01:00

Постеры

Соцсети

 

Статистика

Автор: Нюша
Добавлен: 16 дек 2012, 19:18
Размер: 1.36 ГБ
Размер: 1 461 158 844 байт
Сидеров: 419
Личеров: 190
Скачали: 1
Здоровье: 100%
Раздающих: 100%
Скорость скачивания: 0 байт/сек
Скорость раздачи: 0 байт/сек
Последний сидер: 19 часов 14 минут 24 секунды назад
Последний личер: 19 часов 14 минут 24 секунды назад
Приватный: Нет (DHT включён)
Энциклопедии, справочники, библиотеки Скачать торрент
Скачать торрент
[ Размер 15.19 КБ / Просмотров 25 ]

Поделиться



  • Похожие торренты
    Ответы
    Просмотры
    Последнее сообщение

Вернуться в Энциклопедии, справочники, библиотеки