Подготовка к океанским переходам [неизвестно, яхтинг, DVDRip, ENG] (Видеоурок)

Торрент Сидеров Личеров Размер
torrent_46269.torrent
4 2 869.63 МБ
Аватара пользователя
Tutorial
Сообщения: 9024
Зарегистрирован: 17 янв 2012, 23:53

Подготовка к океанским переходам [неизвестно, яхтинг, DVDRip, ENG] (Видеоурок)

Сообщение Tutorial » 10 фев 2013, 16:57

Подготовка к океанским переходам / Get ready to cross the oceans
Страна: США
Тематика: яхтинг
Тип раздаваемого материала: Видеоурок
Продолжительность: 01:30:00
Год выпуска: неизвестно
Язык: Английский
Перевод: Отсутствует
Описание: Дельные советы по длительным морским переходам. Опытом делится супружеская пара Лин и Ларри Пардей, известные во всем мире богатой практикой круизинга.
(см. также http://rutracker.org/forum/viewtopic.php?t=3255716 )
Качество : DVDRip
Формат: AVI
Видео кодек: DivX
Аудио кодек: MP3
Медиоинфа
Format : AVI
Format/Info : Audio Video Interleave
File size : 870 MiB
Duration : 1h 30mn
Overall bit rate : 1 341 Kbps
Video
ID : 0
Format : MPEG-4 Visual
Format profile : Simple@L1
Format settings, BVOP : No
Format settings, QPel : No
Format settings, GMC : No warppoints
Format settings, Matrix : Default (H.263)
Codec ID : DIVX
Codec ID/Info : Project Mayo
Codec ID/Hint : DivX 4
Duration : 1h 30mn
Bit rate : 1 199 Kbps
Width : 720 pixels
Height : 480 pixels
Display aspect ratio : 3:2
Frame rate : 29.970 fps
Standard : NTSC
Color space : YUV
Chroma subsampling : 4:2:0
Bit depth : 8 bits
Scan type : Progressive
Bits/(Pixel*Frame) : 0.116
Stream size : 778 MiB (89%)
Writing library : avc2.0.11.1110
Audio
ID : 1
Format : MPEG Audio
Format version : Version 1
Format profile : Layer 3
Mode : Joint stereo
Mode extension : MS Stereo
Codec ID : 55
Codec ID/Hint : MP3
Duration : 1h 30mn
Bit rate mode : Constant
Bit rate : 128 Kbps
Channel(s) : 2 channels
Sampling rate : 48.0 KHz
Stream size : 83.0 MiB (10%)
Alignment : Aligned on interleaves
Interleave, duration : 24 ms (0.72 video frame)
Скриншоты
У вас нет необходимых прав для просмотра вложений в этом сообщении.