Видео


Сообщение

Видео Накачайся быстро и качественно [2009] PCRec

Сообщение Nik » 16 мар 2013, 00:56

Накачайся быстро и качественно [2009] PCRec

Автор (режиссер):
Неизвестен
Название: Накачайся быстро и качественно
Год выпуска: 2009
Качество видео: PCRec

Продолжительность:
1. 00:02:06
2. 00:16:59
3. 00:02:48

Видеокодек: AVC
Битрейт видео: ~150-679 Кбит/сек

Размер кадра:
1. 600х480
2. 320х240
3. 300х240

Аудиокодек: AAC
Битрейт аудио: ~128 Кбит/сек

Описание:
Три видеоурока для максимальной накачки мышц тела. Методика корректировалась годами. В связи с этим эта методика, на данный момент гораздо эффективнее остальных.

Мало того, что в видеоуроках описан комплекс упражнений, в них еще затронута тема правильного питания. Все в комплексе дает потрясающие результаты. Удачи!
Код:
Код: Выделить всё
Общее
Полное имя                       : N:\1_Готовятся [-=NNM-club.ru=-]\Накачайся! [-=NNM-club.ru=-]\Накачать бицепс  [-=NNM-club.ru=-].flv
Формат                           : Flash Video
Размер файла                     : 12,2 Мбайт
Продолжительность                : 2 м. 6 с.
Общий поток                      : 806 Кбит/сек

Видео
Формат                           : AVC
Формат/Информация                : Advanced Video Codec
Профиль формата                  :
Параметр CABAC формата           : Да
Параметр ReFrames формата        : 3 кадра
Параметры GOP формата            : M=1, N=50
Идентификатор кодека             : 7
Продолжительность                : 2 м. 6 с.
Битрейт                          : 679 Кбит/сек
Ширина                           : 600 пикс.
Высота                           : 480 пикс.
Соотношение сторон               : 5:4
Режим частоты кадров             : Постоянный
Частота кадров                   : 25,000 кадр/сек
Цветовое пространство            : YUV
Подвыборка цветности             : 4:2:0
Битовая глубина                  : 8 бит
Тип развёртки                    : Прогрессивная
Бит/(Пиксели*Кадры)              : 0.094
Размер потока                    : 10,2 Мбайт (84%)

Аудио
Формат                           : AAC
Формат/Информация                : Advanced Audio Codec
Профиль формата                  : LC
Идентификатор кодека             : 10
Продолжительность                : 2 м. 6 с.
Битрейт                          : 122 Кбит/сек
Каналы                           : 2 канала
Расположение каналов             : Front: L R
Частота                          : 44,1 КГц
Метод сжатия                     : С потерями
Размер потока                    : 1,85 Мбайт (15%)

Код:
Код: Выделить всё
Общее
Полное имя                       : N:\1_Готовятся [-=NNM-club.ru=-]\Накачайся! [-=NNM-club.ru=-]\Накачать пресс [-=NNM-club.ru=-].mp4
Формат                           : MPEG-4
Профиль формата                  : Base Media
Идентификатор кодека             : isom
Размер файла                     : 34,7 Мбайт
Продолжительность                : 16 м.
Общий поток                      : 286 Кбит/сек
Программа кодирования            : Lavf52.40.0

Видео
Идентификатор                    : 1
Формат                           : AVC
Формат/Информация                : Advanced Video Codec
Профиль формата                  :
Параметр CABAC формата           : Нет
Параметр ReFrames формата        : 1 кадр
Идентификатор кодека             : avc1
Идентификатор кодека/Информация  : Advanced Video Coding
Продолжительность                : 16 м.
Вид битрейта                     : Переменный
Битрейт                          : 150 Кбит/сек
Ширина                           : 320 пикс.
Высота                           : 240 пикс.
Соотношение сторон               : 4:3
Режим частоты кадров             : Постоянный
Частота кадров                   : 25,000 кадр/сек
Цветовое пространство            : YUV
Подвыборка цветности             : 4:2:0
Битовая глубина                  : 8 бит
Тип развёртки                    : Прогрессивная
Бит/(Пиксели*Кадры)              : 0.078
Размер потока                    : 18,7 Мбайт (54%)
Библиотека кодирования           : x264 core 79

Аудио
Идентификатор                    : 2
Формат                           : AAC
Формат/Информация                : Advanced Audio Codec
Профиль формата                  : LC
Идентификатор кодека             : 40
Продолжительность                : 16 м.
Вид битрейта                     : Переменный
Битрейт                          : 128 Кбит/сек
Каналы                           : 2 канала
Расположение каналов             : Front: L R
Частота                          : 44,1 КГц
Метод сжатия                     : С потерями
Размер потока                    : 15,5 Мбайт (45%)

Код:
Код: Выделить всё
Общее
Полное имя                       : N:\1_Готовятся [-=NNM-club.ru=-]\Накачайся! [-=NNM-club.ru=-]\Накачать трицепс  [-=NNM-club.ru=-].flv
Формат                           : Flash Video
Размер файла                     : 9,32 Мбайт
Продолжительность                : 3 м. 48 с.
Общий поток                      : 341 Кбит/сек

Видео
Формат                           : AVC
Формат/Информация                : Advanced Video Codec
Профиль формата                  :
Параметр CABAC формата           : Да
Параметр ReFrames формата        : 3 кадра
Параметры GOP формата            : M=1, N=50
Идентификатор кодека             : 7
Продолжительность                : 3 м. 48 с.
Битрейт                          : 281 Кбит/сек
Ширина                           : 300 пикс.
Высота                           : 240 пикс.
Соотношение сторон               : 5:4
Режим частоты кадров             : Постоянный
Частота кадров                   : 25,000 кадр/сек
Цветовое пространство            : YUV
Подвыборка цветности             : 4:2:0
Битовая глубина                  : 8 бит
Тип развёртки                    : Прогрессивная
Бит/(Пиксели*Кадры)              : 0.156
Размер потока                    : 7,67 Мбайт (82%)

Аудио
Формат                           : AAC
Формат/Информация                : Advanced Audio Codec
Профиль формата                  : LC
Идентификатор кодека             : 10
Продолжительность                : 3 м. 49 с.
Битрейт                          : 54,9 Кбит/сек
Каналы                           : 2 канала
Расположение каналов             : Front: L R
Частота                          : 22,05 КГц
Метод сжатия                     : С потерями
Размер потока                    : 1,50 Мбайт (16%)
Скриншоты:


Время раздачи: 24/7 до Ratio по раздаче х5

Постеры

Соцсети

 

Статистика

Автор: Nik
Добавлен: 16 мар 2013, 00:56
Размер: 56.25 МБ
Размер: 58 986 533 байт
Сидеров: 97
Личеров: 8
Скачали: 0
Здоровье: 100%
Раздающих: 100%
Скорость скачивания: 0 байт/сек
Скорость раздачи: 0 байт/сек
Последний сидер: 2 месяца 17 дней 18 часов 14 минут 28 секунд назад
Последний личер: 2 месяца 17 дней 18 часов 14 минут 28 секунд назад
Приватный: Нет (DHT включён)
Здоровье и спорт Скачать торрент
Скачать торрент
[ Размер 18.54 КБ / Просмотров 3 ]

Поделиться



  • Похожие торренты
    Ответы
    Просмотры
    Последнее сообщение

Вернуться в Здоровье и спорт