Видео


Сообщение

Видео [Coursera / Duke University] Introduction to Astronomy [2012, астрономия, ENG] (Видеоурок)

Сообщение Таточка » 16 мар 2013, 14:21

Introduction to Astronomy
Страна: США
Тематика: астрономия
Сайт курса:
Автор: Ronen Plesser
Тип раздаваемого материала: Видеоурок
Продолжительность: 25:10:51
Год выпуска: 2012
Язык: Английский
Перевод: Отсутствует
Язык субтитров: английский
Вступительный ролик: http://www.youtube.com/watch?v=lOmXPQtQzC8
Описание: В этом курсе мы будем изучать буквально всё во Вселенной. Мы начнём с "классической" астрономии, которая описывает ночное небо и систематизирует то, что мы видим. Затем мы отправимся в путешествие: начиная здесь, на Земле, и продвигаясь всё дальше, будем изучать Солнечную систему, галактику Млечный Путь и замечательные и странные объекты, наблюдаемые в глубинах космоса: чёрные дыры, квазары и сверхновые звёзды. Мы закончим обсуждением того, что на данный момент учёные знают о Вселенной в целом. По пути мы будем вводить некоторые методы, теоретические и эмпирические, которые использовались для того, чтобы это узнать: от законов Ньютона через наше понимание света и материи к теории относительности Эйнштейна и от телескопа Галилея до WMAP — аппарата, изучающего реликтовое излучение Большого взрыва.
Оригинальное описание: In this class, we will be studying, quite literally, everything in the universe. We will start with "classical" astronomy, describing the night sky and organizing what we see as was done in ancient times. We will then embark on a journey, starting here on Earth and progressing outward, to study the Solar system, the Milky Way galaxy, and the wonderful and strange objects we observe in deep space, such as black holes, quasars, and supernovae. We will end with some discussion of what scientists know today about the universe as a whole. Along the way we will introduce some of the methods, theoretical and experimental, that have been used to understand all of this, from Newton's laws, through our understanding of light and matter, to Einstein's theory of relativity, and from Galileo's telescope to WMAP.
Формат видео: MP4
Видео: AVC, 960 x 540, 30 fps
Аудио: AAC, 44100 Гц (stereo), 128 kbps
MediaInfo
Код: Выделить всё
Полное имя                               : Week 1. Positional Astronomy\1 - 1. Positional Astronomy Introduction (1416).mp4
Формат                                   : MPEG-4
Профиль формата                          : Base Media
Идентификатор кодека                     : isom
Размер файла                             : 23,5 Мбайт
Продолжительность                        : 14 м.
Общий поток                              : 230 Кбит/сек
Программа кодирования                    : Lavf53.29.100[br][/br]Видео
Идентификатор                            : 1
Формат                                   : AVC
Формат/Информация                        : Advanced Video Codec
Профиль формата                          : High@L3.1
Параметр CABAC формата                   : Да
Параметр ReFrames формата                : 4 кадра
Идентификатор кодека                     : avc1
Идентификатор кодека/Информация          : Advanced Video Coding
Продолжительность                        : 14 м.
Битрейт                                  : 93,6 Кбит/сек
Ширина                                   : 960 пикселей
Высота                                   : 540 пикселей
Соотношение сторон                       : 16:9
Режим частоты кадров                     : Постоянный
Частота кадров                           : 30,000 кадров/сек
Цветовое пространство                    : YUV
Субдискретизация насыщенности            : 4:2:0
Битовая глубина                          : 8 бит
Тип развёртки                            : Прогрессивная
Бит/(Пиксели*Кадры)                      : 0.006
Размер потока                            : 9,56 Мбайт (41%)
Библиотека кодирования                   : x264 core 120 r2120 0c7dab9
Настройки программы                      : cabac=1 / ref=3 / deblock=1:0:0 / analyse=0x3:0x113 / me=hex / subme=7 / psy=1 / psy_rd=1.00:0.00 / mixed_ref=1 / me_range=16 / chroma_me=1 / trellis=1 / 8x8dct=1 / cqm=0 / deadzone=21,11 / fast_pskip=1 / chroma_qp_offset=-2 / threads=12 / sliced_threads=0 / nr=0 / decimate=1 / interlaced=0 / bluray_compat=0 / constrained_intra=0 / bframes=3 / b_pyramid=2 / b_adapt=1 / b_bias=0 / direct=1 / weightb=1 / open_gop=0 / weightp=2 / keyint=250 / keyint_min=25 / scenecut=40 / intra_refresh=0 / rc_lookahead=40 / rc=crf / mbtree=1 / crf=28.0 / qcomp=0.60 / qpmin=0 / qpmax=69 / qpstep=4 / ip_ratio=1.40 / aq=1:1.00[br][/br]Аудио
Идентификатор                            : 2
Формат                                   : AAC
Формат/Информация                        : Advanced Audio Codec
Профиль формата                          : LC
Идентификатор кодека                     : 40
Продолжительность                        : 14 м.
Вид битрейта                             : Постоянный
Битрейт                                  : 128 Кбит/сек
Каналы                                   : 2 канала
Расположение каналов                     : Front: L R
Частота                                  : 44,1 КГц
Метод сжатия                             : С потерями
Задержка видео                           : 67 мс.
Размер потока                            : 13,1 Мбайт (56%)
Скриншоты

Постеры

Соцсети

 

Статистика

Автор: Таточка
Добавлен: 16 мар 2013, 14:21
Размер: 2.77 ГБ
Размер: 2 974 174 219 байт
Сидеров: 11
Личеров: 4
Скачали: 2
Здоровье: 100%
Раздающих: 100%
Скорость скачивания: 0 байт/сек
Скорость раздачи: 0 байт/сек
Последний сидер: 5 месяцев 19 дней 8 часов 40 минут 14 секунд назад
Последний личер: 5 месяцев 19 дней 8 часов 40 минут 14 секунд назад
Приватный: Нет (DHT включён)
Школьникам, студентам и педагогам Скачать торрент
Скачать торрент
[ Размер 56.42 КБ / Просмотров 13 ]

Поделиться



  • Похожие торренты
    Ответы
    Просмотры
    Последнее сообщение

Вернуться в Школьникам, студентам и педагогам