Видео


Сообщение

Видео XXVIII Ницше-семинар [2012, филосфия, CAMRip, RUS] (Видеоурок)

Сообщение Таточка » 16 мар 2013, 14:38

XXVIII Ницше-семинар
Страна: Россия
Тематика: филосфия
Тип раздаваемого материала: Видеоурок
Продолжительность: 2.43.43
Год выпуска: 2012
Язык: Русский
Перевод: Не требуется
Язык субтитров: отсутствует
Описание: ° Образование пассионарной личности, сверхчеловека, хама
° Образование и выведение (Bildung und Zuchtung). Образование как техника выведения и как провокация
° Ориентация на готовность встречи с будущим как чужим – необходимость чувства Чужого
° Инстанции "чужого" в образовании: ассимиляция, аккультурация, экстерминация
° Евразия: кто мы такие? Кого мы должны воспитывать как евразийцы?
Доп. информация: http://rutracker.org/forum/viewtopic.php?t=4276329 только Садовников и меньшего размера. есть диктофонная запись прошлого семинара с качеством, оставляющего желать лучшего
Качество: CAMRip
Формат: AVI
Видео кодек: XviD
Аудио кодек: MP3
Видео: Video: Format : M-JPEG
Codec ID : MJPG
Bit rate : 14.9 Mbps
Width : 640 pixels
Height : 480 pixels
Display aspect ratio : 4:3
Frame rate : 30.000 fps
Resolution : 24 bits
Scan type : Progressive
Bits/(Pixel*Frame) : 1.621
Stream size : 3.98 GiB (99%)
Аудио: Audio: Format : PCM
Format settings, Endianness : Little
Format settings, Sign : Unsigned
Codec ID : 1
Codec ID/Hint : Microsoft
Bit rate mode : Constant
Bit rate : 88.2 Kbps
Channel(s) : 1 channel
Sampling rate : 11.024 KHz
Resolution : 8 bits
Stream size : 24.0 MiB (1%)
Interleave, duration : 1000 ms (30.00 video frames)
Interleave, preload duration : 1000 ms
Скриншоты




Постеры

Соцсети

 

Статистика

Автор: Таточка
Добавлен: 16 мар 2013, 14:38
Размер: 15.66 ГБ
Размер: 16 814 824 966 байт
Сидеров: 3
Личеров: 1
Скачали: 0
Здоровье: 100%
Раздающих: 100%
Скорость скачивания: 0 байт/сек
Скорость раздачи: 0 байт/сек
Последний сидер: 5 месяцев 19 дней 2 часа 52 минуты 23 секунды назад
Последний личер: 5 месяцев 19 дней 2 часа 52 минуты 23 секунды назад
Приватный: Нет (DHT включён)
Школьникам, студентам и педагогам Скачать торрент
Скачать торрент
[ Размер 79.05 КБ / Просмотров 1 ]

Поделиться



  • Похожие торренты
    Ответы
    Просмотры
    Последнее сообщение

Вернуться в Школьникам, студентам и педагогам