Видео


Сообщение

Видео [Coursera / Stanford University / University of British Columbia] Теория Игр / Game Theory [2013, Economics, Computer Science, WEBRip, ENG] (Видеоурок)

Сообщение Таточка » 16 мар 2013, 14:58

Теория Игр / Game Theory
Страна: USA/Canada
Тематика: Economics, Computer Science
Тип раздаваемого материала: Видеоурок
Год выпуска: 2013
Язык: Английский
Перевод: Отсутствует
Язык субтитров: Английский
Описание: Теория игр — математический метод изучения оптимальных стратегий в играх. Под игрой понимается процесс, в котором участвуют две и более сторон, ведущих борьбу за реализацию своих интересов. Каждая из сторон имеет свою цель и использует некоторую стратегию, которая может вести к выигрышу или проигрышу — в зависимости от поведения других игроков.
Оригинальное описание на английском
Popularized by movies such as "A Beautiful Mind", game theory is the mathematical modeling of strategic interaction among rational (and irrational) agents. Beyond what we call 'games' in common language, such as chess, poker, soccer, etc., it includes the modeling of conflict among nations, political campaigns, competition among firms, and trading behavior in markets such as the NYSE. How could you begin to model eBay, Google keyword auctions, and peer to peer file-sharing networks, without accounting for the incentives of the people using them? The course will provide the basics: representing games and strategies, the extensive form (which computer scientists call game trees), Bayesian games (modeling things like auctions), repeated and stochastic games, and more. We'll include a variety of examples including classic games and real-world applications
Доп. информация:
Course Syllabus
Week 1. Introduction: Introduction, overview, uses of game theory, some applications and examples, and formal definitions of: the normal form, payoffs, strategies, pure strategy Nash equilibrium, dominated strategies.
Week 2. Mixed-strategy Nash equilibria: Definitions, examples, real-world evidence.
Week 3. Alternate solution concepts: iterative removal of strictly dominated strategies, minimax strategies and the minimax theorem for zero-sum game, correlated equilibria.
Week 4. Extensive-form games: Perfect information games: trees, players assigned to nodes, payoffs, backward Induction, subgame perfect equilibrium, introduction to imperfect-information games, mixed versus behavioral strategies.
Week 5. Repeated games: Repeated prisoners dilemma, finite and infinite repeated games, limited-average versus future-discounted reward, folk theorems, stochastic games and learning.
Week 6. Coalitional games: Transferable utility cooperative games, Shapley value, Core, applications.
Week 7. Bayesian games: General definitions, ex ante/interim Bayesian Nash equilibrium.
Качество: WEBRip
Формат: MP4
Видео кодек: H.264
Аудио кодек: AAC
Видео: H264, 960x540, 29.970029 fps
Скриншоты
Отчёт MediaInfo
General
Complete name : Coursera - Game Theory (2013)\lectures\001_1 - 1 - 1-1 Game Theory Intro - TCP Backoff (1123).mp4
Format : MPEG-4
Format profile : Base Media
Codec ID : isom
File size : 16.7 MiB
Duration : 11mn 23s
Overall bit rate : 205 Kbps
Writing application : Lavf53.29.100
Video
ID : 1
Format : AVC
Format/Info : Advanced Video Codec
Format profile : High@L3.1
Format settings, CABAC : Yes
Format settings, ReFrames : 4 frames
Codec ID : avc1
Codec ID/Info : Advanced Video Coding
Duration : 11mn 23s
Bit rate : 69.7 Kbps
Width : 960 pixels
Height : 540 pixels
Display aspect ratio : 16:9
Frame rate mode : Constant
Frame rate : 29.970 fps
Color space : YUV
Chroma subsampling : 4:2:0
Bit depth : 8 bits
Scan type : Progressive
Bits/(Pixel*Frame) : 0.004
Stream size : 5.68 MiB (34%)
Writing library : x264 core 120 r2120 0c7dab9
Encoding settings : cabac=1 / ref=3 / deblock=1:0:0 / analyse=0x3:0x113 / me=hex / subme=7 / psy=1 / psy_rd=1.00:0.00 / mixed_ref=1 / me_range=16 / chroma_me=1 / trellis=1 / 8x8dct=1 / cqm=0 / deadzone=21,11 / fast_pskip=1 / chroma_qp_offset=-2 / threads=12 / sliced_threads=0 / nr=0 / decimate=1 / interlaced=0 / bluray_compat=0 / constrained_intra=0 / bframes=3 / b_pyramid=2 / b_adapt=1 / b_bias=0 / direct=1 / weightb=1 / open_gop=0 / weightp=2 / keyint=250 / keyint_min=25 / scenecut=40 / intra_refresh=0 / rc_lookahead=40 / rc=crf / mbtree=1 / crf=28.0 / qcomp=0.60 / qpmin=0 / qpmax=69 / qpstep=4 / ip_ratio=1.40 / aq=1:1.00
Audio
ID : 2
Format : AAC
Format/Info : Advanced Audio Codec
Format profile : LC
Codec ID : 40
Duration : 11mn 23s
Bit rate mode : Constant
Bit rate : 128 Kbps
Channel(s) : 2 channels
Channel positions : Front: L R
Sampling rate : 44.1 KHz
Compression mode : Lossy
Delay relative to video : 67ms
Stream size : 10.4 MiB (62%)

Постеры

Соцсети

 

Статистика

Автор: Таточка
Добавлен: 16 мар 2013, 14:58
Размер: 703.97 МБ
Размер: 738 161 919 байт
Сидеров: 34
Личеров: 11
Скачали: 0
Здоровье: 100%
Раздающих: 100%
Скорость скачивания: 0 байт/сек
Скорость раздачи: 0 байт/сек
Последний сидер: 8 месяцев 11 дней 22 часа 32 минуты 58 секунд назад
Последний личер: 8 месяцев 11 дней 22 часа 32 минуты 58 секунд назад
Приватный: Нет (DHT включён)
Школьникам, студентам и педагогам Скачать торрент
Скачать торрент
[ Размер 27.12 КБ / Просмотров 1 ]

Поделиться



  • Похожие торренты
    Ответы
    Просмотры
    Последнее сообщение

Вернуться в Школьникам, студентам и педагогам