Видео


Сообщение

Видео Тригонометрия [2013, Уроки по математике, VCD, RUS] (Видеоурок)

Сообщение Stepan » 16 мар 2013, 16:24

Тригонометрия
Тематика: Уроки по математике
Тип раздаваемого материала: Видеоурок
Продолжительность: 3:00:00
Год выпуска: 2013
Язык: Русский
Перевод: Авторский (одноголосый)
Описание: Уроки этого курсу научат вас понимать тригонометрические выражения и оперировать ими.
Доп. информация: Авторская раздача, комментарии и пожелания приветствуются.
Материал можно свободно распространять в сети не внося изменений.
Качество: VCD
Формат: MP4
Видео кодек: H.264 / AVC
Аудио кодек: MPEG 1 Audio, Layer 3 (MP3)
Видео: 1280 x 720; 25 fps; 1111 kbps
Аудио: 44100 Hz; 320 kbps
МеdiaInfo
General
Complete name : N:\Rus\Math_Trig_Rus_01_05.mp4
Format : MPEG-4
Format profile : Base Media
Codec ID : isom
File size : 175 MiB
Duration : 15mn 4s
Overall bit rate : 1 626 Kbps
Writing application : Lavf52.31.0
Video
ID : 1
Format : AVC
Format/Info : Advanced Video Codec
Format profile : High@L3.1
Format settings, CABAC : Yes
Format settings, ReFrames : 1 frame
Codec ID : avc1
Codec ID/Info : Advanced Video Coding
Duration : 15mn 4s
Bit rate mode : Variable
Bit rate : 1 302 Kbps
Nominal bit rate : 8 000 Kbps
Width : 1 280 pixels
Height : 720 pixels
Display aspect ratio : 16:9
Frame rate mode : Constant
Frame rate : 25.000 fps
Color space : YUV
Chroma subsampling : 4:2:0
Bit depth : 8 bits
Scan type : Progressive
Bits/(Pixel*Frame) : 0.057
Stream size : 140 MiB (80%)
Writing library : x264 core 85 Ubuntu_2:0.85.1448+git1a6d32-4
Encoding settings : cabac=1 / ref=1 / deblock=1:0:0 / analyse=0x3:0 / me=dia / subme=7 / psy=1 / psy_rd=1,00:0,00 / mixed_ref=0 / me_range=4 / chroma_me=0 / trellis=1 / 8x8dct=1 / cqm=0 / deadzone=21,11 / fast_pskip=0 / chroma_qp_offset=-2 / threads=1 / sliced_threads=0 / nr=0 / decimate=1 / mbaff=0 / constrained_intra=0 / bframes=0 / wpredp=0 / keyint=12 / keyint_min=7 / scenecut=0 / intra_refresh=0 / rc=abr / mbtree=0 / bitrate=8000 / ratetol=0,5 / qcomp=0,00 / qpmin=10 / qpmax=51 / qpstep=4 / ip_ratio=1,25 / aq=1:1,00
Audio
ID : 2
Format : MPEG Audio
Format version : Version 1
Format profile : Layer 3
Mode : Joint stereo
Mode extension : MS Stereo
Codec ID : 6B
Duration : 15mn 4s
Bit rate mode : Constant
Bit rate : 320 Kbps
Channel(s) : 2 channels
Sampling rate : 44.1 KHz
Compression mode : Lossy
Stream size : 34.5 MiB (20%)
Writing library : LAME3.98.2
Скриншоты

Постеры

Соцсети

 

Статистика

Автор: Stepan
Добавлен: 16 мар 2013, 16:24
Размер: 1.55 ГБ
Размер: 1 667 512 560 байт
Сидеров: 73
Личеров: 11
Скачали: 4
Здоровье: 100%
Раздающих: 100%
Скорость скачивания: 0 байт/сек
Скорость раздачи: 0 байт/сек
Последний сидер: 5 месяцев 8 дней 4 часа 53 минуты 16 секунд назад
Последний личер: 5 месяцев 8 дней 4 часа 53 минуты 16 секунд назад
Приватный: Нет (DHT включён)
Школьникам, студентам и педагогам Скачать торрент
Скачать торрент
[ Размер 31.92 КБ / Просмотров 14 ]

Поделиться



  • Похожие торренты
    Ответы
    Просмотры
    Последнее сообщение

Вернуться в Школьникам, студентам и педагогам