Аудио


Сообщение

Аудио Анна Ахматова. Стихи и проза (читает автор) [FLAC]

Сообщение stegrian » 30 мар 2013, 08:20

Анна Ахматова
http://fastpic.ru/
Год выпуска: 2003
Исполнитель: автор
Жанр: декламация
Издательство: Гос. Лит. музей
Тип: аудиокнига
Аудио кодек: FLAC
Битрейт аудио: lossless
Описание:У Анны Ахматовой был чуткий слух, феноменальная слуховая память, красивый, богатый тембровыми оттенками и поэтому особенно выразительный голос.
Осип Мандельштам даже утверждал, что стихи Ахматовой «сделаны из голоса, составляют с ним одно целое» и те счастливцы, которые слышали ахматовское чтение, «богаче будущих поколений, которые его не услышат».
Широкое распространение звукозаписи во второй половине XX века несколько смягчило для нас эту потерю, дало возможность и нам с вами услышать ахматовское чтение, услышать ее «волшебное произношение».
Записи 1963-1965 гг.
Составитель П. Шилов
список треков
АННА АХМАТОВА (1889-1966)
Стихи и проза
1. Но я предупреждаю вас 0,28
2. «Читая Гамлета», цикл стихотворений 0,56
5. Рыбак 0,59
4. Смуглый отрок бродил по аллеям 0,34
5. Сжала руки под темной вуалью... 0,45
6. Слаб голос мой, но воля не слабеет ... 0,54
7. Ведь где-то есть простая жизнь и свет 0,59
8. Мне голос был, он звал утешно... 0,47
9. Небывалая осень построила купол высокий... 1,10
10. Муза 0,41
11. Разрыв», цикл стихотворений 1,36
12. Привольем пахнет дикий мед... 0,49
13. Клеопатра 1,15
Стихотворения из пьесы
14. «Пролог, или сон во сне» 3,35
15 Из цикла Ветер войны» 2,23
16. Родная земля 1,11
17. Вот она, плодоносная осень... 0,33
18. «Полночные стихи», цикл стихотворений 6,19
19. Летний сад 1,13
20. Приморский сонет.... 0,48
21. Об Александре Блоке 6,30
22. Из очерка «Амадео Модильяни» 15,36
23. «Реквием», цикл стихотворений 14,20
Общее время звучания: 65,49 мин
log
Exact Audio Copy V0.99 prebeta 4 from 23. January 2008
Отчёт EAC об извлечении
Unknown Artist / Unknown Title
Дисковод: Optiarc DVD RW AD-5200A Adapter: 1 ID: 1
Режим чтения : Достоверность
Использование точного потока : Да
Отключение кэша аудио : Да
Использование указателей C2 : Нет
Коррекция смещения при чтении : 48
Способность читать области Lead-in и Lead-out : Нет
Заполнение пропущенных сэмплов тишиной : Да
Удаление блоков с тишиной в начале и конце : Нет
При вычислениях CRC использовались нулевые сэмплы : Да
Интерфейс : Встроенный Win32-интерфейс для Win NT/2000
Выходной формат : Пользовательский кодировщик
Выбранный битрейт : 768 kBit/s
Качество : Высокий
Добавление ID3-тэга : Нет
Утилита сжатия : FLAC.EXE
Дополнительные параметры : -6 -V -T "ARTIST=%a" -T "TITLE=%t" -T "ALBUM=%g" -T "DATE=%y" -T "TRACKNUMBER=%n" -T "GENRE=%m" -T "COMMENT=%e" %s -o %d
Смещение при сжатии : 0
TOC извлечённого CD
Трек | Старт | Длительность | Начальный сектор | Конечный сектор
---------------------------------------------------------------------
1 | 0:00.00 | 0:32.00 | 0 | 2399
2 | 0:32.00 | 1:00.00 | 2400 | 6899
3 | 1:32.00 | 1:03.00 | 6900 | 11624
4 | 2:35.00 | 0:38.00 | 11625 | 14474
5 | 3:13.00 | 0:49.00 | 14475 | 18149
6 | 4:02.00 | 0:58.00 | 18150 | 22499
7 | 5:00.00 | 1:03.00 | 22500 | 27224
8 | 6:03.00 | 0:51.00 | 27225 | 31049
9 | 6:54.00 | 1:14.00 | 31050 | 36599
10 | 8:08.00 | 0:45.00 | 36600 | 39974
11 | 8:53.00 | 1:40.00 | 39975 | 47474
12 | 10:33.00 | 0:53.00 | 47475 | 51449
13 | 11:26.00 | 1:19.00 | 51450 | 57374
14 | 12:45.00 | 3:39.00 | 57375 | 73799
15 | 16:24.00 | 2:27.00 | 73800 | 84824
16 | 18:51.00 | 1:15.00 | 84825 | 90449
17 | 20:06.00 | 0:37.00 | 90450 | 93224
18 | 20:43.00 | 6:23.00 | 93225 | 121949
19 | 27:06.00 | 1:17.00 | 121950 | 127724
20 | 28:23.00 | 0:52.00 | 127725 | 131624
21 | 29:15.00 | 6:34.00 | 131625 | 161174
22 | 35:49.00 | 15:40.00 | 161175 | 231674
23 | 51:29.00 | 14:20.00 | 231675 | 296174
Характеристики диапазона извлечения и сообщения об ошибках
Выбранный диапазон
Имя файла : Ахматова.wav
Пиковый уровень 75.0 %
Качество диапазона 100.0 %
CRC копии 4EE90842
Копирование... OK
Ошибок не произошло
Конец отчёта
Обложка большого размера
Другие раздачи:
Владимир Маяковский. Во весь голос (декламирует автор и другие исполнители)
Сергей Есенин (уникальные записи авторского чтения)
Русская поэзия (философско-поэтическая декламация)
Александр Блок и его современники (архивные записи)
Иосиф Бродский. Стихотворения (читает автор)
Осип Мандельштам. Звучащий альманах (авторская и другие декламации)
Борис Пастернак (полное собрание звукозаписей авторского чтения)

Постеры

Соцсети

 

Статистика

Автор: stegrian
Добавлен: 30 мар 2013, 08:20
Размер: 153.5 МБ
Размер: 160 952 130 байт
Сидеров: 0
Личеров: 1
Скачали: 0
Здоровье: ???%
Скорость скачивания: 0 байт/сек
Скорость раздачи: 0 байт/сек
Последний сидер: Нет
Последний личер: 1 месяц 18 дней 7 часов 18 минут 28 секунд назад
Приватный: Нет (DHT включён)
Скачать торрент
Скачать торрент
[ Размер 12.58 КБ / Просмотров 2 ]

Поделиться



Вернуться в Аудио и радиоспектакли