Аудио


Сообщение

Аудио Сергей Есенин - Сергей Есенин [FLAC]

Сообщение stegrian » 30 мар 2013, 08:20

Сергей Есенин
http://fastpic.ru/
Год выпуска: 2008
Жанр: литературная композиция
Автор композиции: Лев Шилов
Комментарии: Лев Шилов и Ираклий Андроников
Тип: Методическое посо6ие
Тираж: 20 экз.
Аудио кодек: FLAC
Битрейт аудио: lossless
Описание: Когда впервые слушаешь запись голоса Есенина, его чтение кажется неожиданным. Поэт, который, казалось бы, должен был произносить свои строки проникновенно, задумчиво, певуче (именно так декламируют его стихи многие актёры), читает неистово, бурно, громогласно.
И теперь, услышав этот немного хриплый, подчас срывающийся, такой взволнованный голос, понимаешь, что раньше ты по-настоящему не знал стихов Есенина, что-то очень существенное в них тебе ещё не было открыто.
Захватывающая, заразительная искренность,
мужественность, высокая трагичность - те качества поэзии Есенина, которые уже знакомы читателю, становятся особенно ощутимы слушателю. Дело в том, что многие стихи Есенина, как и Маяковского, ярко декламационны, написаны с расчётом на произнесение.
Сначала удивляет то, что не только монолог каторжника Хлопуши из драмы «Пугачев», но и лирические стихи Есенин читает с дерзким вызовом, даже некоторым надрывом. Мы уже привыкли к совершенно другому звучанию его стихов. Чтецкая традиция их произнесения, заложенная Качаловым, Яхонтовым, Аксёновым, продолженная многими современными чтецами, при всей разнице их индивидуальностей, учила бережному, вдумчивому произнесению каждого слова, давала возможность полюбоваться переливами нежных есенинских красок, вникнуть в оттенки переживаний лирического героя. В чтении же самого Есенина нет никакой «задумчивости», никакого «раскрашивания». Гораздо энергичнее, чем чтецы, он выявляет ритм стиха, упругий, завораживающий, единый на всё стихотворение. По сравнению с актёрским это более «обобщенное» чтение, впечатление на слушателей производят не отдельные, наиболее яркие строки и эпитеты, а всё стихотворение в целом и те качества личности поэта, которые в этом стихотворении и в этом произнесении наиболее полно проявились. Декламация Есенина куда более драматична, динамична, эмоционально насыщена, чем актёрское чтение.
Секрет «потрясающего» чтения Есенина, как назвал его В.Шкловский, состоит в том, что в его произнесении за каждым словом - истинное переживание большой личности.
На записях Есенина наши поэты и чтецы могут и должны учиться силе самовыражения, высочайшей искренности переживания, умению самые бурные эмоции оформить чеканным и вместе с тем гибким, выразительным ритмическим рисунком.
содержание диска
Часть 1 [30.23 мин]
ВОСПОМИНАНИЯ
Т.Ф. Есенина
С.Т. Коненков
Н.А. Павлович
А.Л. Миклашевская
Стихотворения С. Есенина
- Песнь о собаке. Чит. В. Качалов
- Собаке Качалова. Чит. В. Яхонтов
- Отрывок из "Сорокоуста". Чит. автор
- Исповедь хулигана. Чит. автор
- Монолог Хлопуши. Чит. автор
Фонозаписи 1922 г.
Часть 2 [28.15 мин]
ВОСПОМИНАНИЯ
П.И. Чагйн
Н.С. Тихонов
Стихотворения С. Есенина
- Цветы. Чит. В. Яхонтов
Новый вариант реставрации фонозаписей 1922 г.
- Монолог Хлопуши. Чит. автор
- Исповедь хулигана. Чит. автор
- Разбуди меня завтра рано... Чит. автор
- Я покинул родимый дом... Чит. автор
- Отрывок из "Сорокоуста. Чит. автор
- Волчья гибель (2 отрывка). Чит. автор
- Письмо к матери. Исп. М. Новохижин
- Над окошком месяц. Исп. хор
Приложение. Стихи Сергея Есенина в авторском исполнении
- Отрывок из "Сорокоуста
- Исповедь хулигана
- Монолог Хлопуши
- Разбуди меня завтра рано...
- Я покинул родимый дом
- Волчья гибель (2 отрывка)
log
Exact Audio Copy V0.99 prebeta 4 from 23. January 2008
Отчёт EAC об извлечении
Various / Сергей Есенин
Дисковод: Optiarc DVD RW AD-5200A Adapter: 1 ID: 1
Режим чтения : Достоверность
Использование точного потока : Да
Отключение кэша аудио : Да
Использование указателей C2 : Нет
Коррекция смещения при чтении : 48
Способность читать области Lead-in и Lead-out : Нет
Заполнение пропущенных сэмплов тишиной : Да
Удаление блоков с тишиной в начале и конце : Нет
При вычислениях CRC использовались нулевые сэмплы : Да
Интерфейс : Встроенный Win32-интерфейс для Win NT/2000
Выходной формат : Пользовательский кодировщик
Выбранный битрейт : 768 kBit/s
Качество : Высокий
Добавление ID3-тэга : Нет
Утилита сжатия : FLAC.EXE
Дополнительные параметры : -6 -V -T "ARTIST=%a" -T "TITLE=%t" -T "ALBUM=%g" -T "DATE=%y" -T "TRACKNUMBER=%n" -T "GENRE=%m" -T "COMMENT=%e" %s -o %d
Смещение при сжатии : 0
TOC извлечённого CD
Трек | Старт | Длительность | Начальный сектор | Конечный сектор
---------------------------------------------------------------------
1 | 0:00.00 | 30:22.55 | 0 | 136704
2 | 30:22.55 | 28:17.69 | 136705 | 264048
3 | 58:40.49 | 1:42.29 | 264049 | 271727
4 | 60:23.03 | 1:28.34 | 271728 | 278361
5 | 61:51.37 | 1:53.65 | 278362 | 286901
6 | 63:45.27 | 1:47.16 | 286902 | 294942
7 | 65:32.43 | 1:18.16 | 294943 | 300808
8 | 66:50.59 | 2:54.18 | 300809 | 313876
Характеристики диапазона извлечения и сообщения об ошибках
Выбранный диапазон
Имя файла: Сергей Есенин.wav
Пиковый уровень 97.2 %
Качество диапазона 100.0 %
CRC копии DCEDA52C
Копирование... OK
Ошибок не произошло
Конец отчёта
Картинка большого размера: обложка, оборот
Другие раздачи:
В. Маяковский. Во весь голос (стихи в авторском исполнении)
Александр Блок и его современники (архивные записи)
Русская поэзия (философско-поэтическая декламация)
Корней Чуковский. Стихи и сказки (читает автор)
Живой Маяковский (песни рок-исполнителей на стихи Маяковского)
Анна Ахматова. Стихи и проза (читает автор)
Иосиф Бродский. Стихотворения (читает автор)
Осип Мандельштам. Звучащий альманах (авторская и другие декламации)
Борис Пастернак (полное собрание звукозаписей авторского чтения)

Постеры

Соцсети

 

Статистика

Автор: stegrian
Добавлен: 30 мар 2013, 08:20
Размер: 232.79 МБ
Размер: 244 101 663 байт
Сидеров: 0
Личеров: 1
Скачали: 0
Здоровье: ???%
Скорость скачивания: 0 байт/сек
Скорость раздачи: 0 байт/сек
Последний сидер: Нет
Последний личер: 1 год 1 месяц 13 дней 8 часов 50 минут 30 секунд назад
Приватный: Нет (DHT включён)
Скачать торрент
Скачать торрент
[ Размер 18.77 КБ / Просмотров 1 ]

Поделиться



Вернуться в Аудио и радиоспектакли