Видеоурок от CoRE | Как проверить USB порты [2013] HDRip

Видео уроки, книги, учебники, по сборке и ремонту компьютеров, ноутбуков и комплектующих
Торрент Сидеров Личеров Размер
torrent_80684.torrent
10 6 91.36 МБ
Аватара пользователя
asder
Сообщения: 5970
Зарегистрирован: 05 ноя 2011, 23:24

Видеоурок от CoRE | Как проверить USB порты [2013] HDRip

Сообщение asder » 17 июл 2013, 21:37

Видеоурок от CoRE | Как проверить USB порты [2013] HDRip

Название: Как проверить USB порты на материнской плате
Год выпуска: 2013
Жанр: Видеоурок
Продолжительность: 00:04:43

Описание:
Каким образом прозвонить USB порты на плате. Без пробного "подтыкания" исправных usb-устройств. Все просто и доступно. Обратите внимание - материнская плата обесточена и отключена от всех устройств.
Видео для простых неискушенных в электронике пользователей. Так что компьютерных гуру, истинных и мнящих себя таковыми, просьба не беспокоиться и не соревноваться в остроумии.

Качество видео: HDRip
Видеокодек: MPEG-4
Битрейт видео: ~2460 kbps
Размер кадра: 1920x1080
Аудиокодек: MP3, 2 ch
Битрейт аудио: 192 Kbps
Код:

Код: Выделить всё

Общее
Уникальный идентификатор                 : 44867340269990538838525245143582165567 (0x21C122AA905BE66791AD31480ECECA3F)
Полное имя                               : D:\1UP\pr_usb.mkv
Формат                                   : Matroska
Версия формата                           : Version 2
Размер файла                             : 91,4 Мбайт
Продолжительность                        : 4 м. 43 с.
Общий поток                              : 2706 Кбит/сек
Программа кодирования                    : Lavf52.39.1
Библиотека кодирования                   : Lavf52.39.1

Видео
Идентификатор                            : 1
Формат                                   : MPEG-4 Visual
Профиль формата                          : Simple@L1
Параметр BVOP формата                    : Нет
Параметр QPel формата                    : Нет
Параметр GMC формата                     : Без точки перехода
Параметр матрицы формата                 : Default (H.263)
Идентификатор кодека                     : V_MPEG4/ISO/ASP
Идентификатор кодека/Информация          : Advanced Simple Profile
Продолжительность                        : 4 м. 43 с.
Битрейт                                  : 2460 Кбит/сек
Ширина                                   : 1920 пикселей
Высота                                   : 1080 пикселей
Соотношение сторон                       : 4:3
Режим частоты кадров                     : Постоянный
Частота кадров                           : 25,000 кадров/сек
Цветовое пространство                    : YUV
Субдискретизация насыщенности            : 4:2:0
Битовая глубина                          : 8 бит
Тип развёртки                            : Прогрессивная
Метод сжатия                             : С потерями
Бит/(Пиксели*Кадры)                      : 0.047
Размер потока                            : 83,1 Мбайт (91%)
Библиотека кодирования                   : Lavc52.37.0
Default                                  : Да
Forced                                   : Нет

Аудио
Идентификатор                            : 2
Формат                                   : MPEG Audio
Версия формата                           : Version 1
Профиль формата                          : Layer 3
Режим                                    : Joint stereo
Идентификатор кодека                     : A_MPEG/L3
Идентификатор кодека/Подсказка           : MP3
Продолжительность                        : 4 м. 43 с.
Вид битрейта                             : Постоянный
Битрейт                                  : 192 Кбит/сек
Каналы                                   : 2 канала
Частота                                  : 44,1 КГц
Метод сжатия                             : С потерями
Размер потока                            : 6,48 Мбайт (7%)
Default                                  : Да
Forced                                   : Нет

Скриншоты:
Время раздачи: C 8:00 до 23:00 мск. До первых пяти скачавших.

Примечание: Канал наютюб
У вас нет необходимых прав для просмотра вложений в этом сообщении.