Видео


Сообщение

Видео Windows 8. Ускоряем работу без дополнительных программ [2013] PCRec

Сообщение asder » 17 июл 2013, 21:43

Название: Windows 8. Ускоряем работу без дополнительных программ
Год выпуска: 2013
Жанр: Обучающее видео
Продолжительность: 00:11:20
Качество видео: PCRec
Видеокодек: AVC
Битрейт видео: ~6394 Кбит/сек
Размер кадра: 1920x1080
Аудиокодек: MP3,2ch
Битрейт аудио: 128 Кбит/сек

Описание:
После просмотра этого видео вы узнаете о том, как ускорить работу Windows 8 без установки дополнительных программ.
План урока:
1. - выставить виртуальную память в 2 раза больше чем оперативная
2. - не индексировать содержимое диска.
3. - смена кол-ва отображаемых цветов.
4. - убрать большинство эффектов системы и анимацию.
5. - отключение восстановления системы.
6. - установить число процессоров на 2 или 4 или 8 (в зависимости сколько их у вас)
7. - ПРОГРАММЫ и КОМПОНЕНТЫ. Включение и отключение компонентов windows.
8. - убрать из автозагрузки ненужные программы.
9. - Отключить ненужные службы
10. - добавлять в в меню слева ссылки на часто посещаемые места
11. - дефрагментация диска.
12. - добавить ссылки на рабочий стол на места в которые трудно попасть одним или двумя щелчками мыши
Видео
Идентификатор : 1
Формат : AVC
Формат/Информация : Advanced Video Codec
Профиль формата :
Параметр CABAC формата : Нет
Параметр ReFrames формата : 1 кадр
Параметр GOP формата : M=1, N=12
Идентификатор кодека : V_MPEG4/ISO/AVC
Продолжительность : 11 м.
Битрейт : 6394 Кбит/сек
Ширина : 1920 пикселей
Высота : 1080 пикселей
Соотношение сторон : 16:9
Режим частоты кадров : Постоянный
Частота кадров : 29,970 кадров/сек
Цветовое пространство : YUV
Субдискретизация насыщенности : 4:2:0
Битовая глубина : 8 бит
Тип развёртки : Прогрессивная
Бит/(Пиксели*Кадры) : 0.103
Размер потока : 518 Мбайт (96%)
Default : Да
Forced : Нет

Аудио
Идентификатор : 2
Формат : MPEG Audio
Версия формата : Version 1
Профиль формата : Layer 3
Режим : Joint stereo
Идентификатор кодека : A_MPEG/L3
Идентификатор кодека/Подсказка : MP3
Продолжительность : 11 м.
Вид битрейта : Постоянный
Битрейт : 128 Кбит/сек
Каналы : 2 канала
Частота : 44,1 КГц
Метод сжатия : С потерями
Размер потока : 10,4 Мбайт (2%)
Библиотека кодирования : LAME3.97
Default : Да
Forced : Нет
Скриншоты:

Постеры

Соцсети

 

Статистика

Автор: asder
Добавлен: 17 июл 2013, 21:43
Размер: 538.92 МБ
Размер: 565 095 332 байт
Сидеров: 24
Личеров: 13
Скачали: 3
Здоровье: 100%
Раздающих: 100%
Скорость скачивания: 0 байт/сек
Скорость раздачи: 0 байт/сек
Последний сидер: 7 месяцев 26 дней 22 часа 56 минут 47 секунд назад
Последний личер: 8 дней 23 часа 47 минут 21 секунду назад
Приватный: Нет (DHT включён)
Семейство Windows Скачать торрент
Скачать торрент
[ Размер 11.46 КБ / Просмотров 23 ]

Поделиться



  • Похожие торренты
    Ответы
    Просмотры
    Последнее сообщение

Вернуться в Семейство Windows