Старцы [4 фильма из 4] (Константин Голенчик) [2013, документальный, SATRip-AVC]

Торрент Сидеров Личеров Размер
torrent_87353.torrent
0 0 2.36 ГБ
Аватара пользователя
Sid
Сообщения: 11619
Зарегистрирован: 15 янв 2012, 17:33

Старцы [4 фильма из 4] (Константин Голенчик) [2013, документальный, SATRip-AVC]

Сообщение Sid » 22 июл 2013, 00:32

Старцы [4 фильма из 4]

Перевод: Не требуется, cубтитры: отсутствуют
Формат: SATRip-AVC, MKV, H.264, MP3
Страна: Россия
Режиссер: Константин Голенчик
Жанр: документальный
Продолжительность: 4x ~ 00:30:00
Год выпуска: 2013

Описание: Старцы – это живые святые, которым дан молитвенный и пророческий дар, и встречи с которыми не
забываются. В монашеском чине, священническом или епископском сане, старцы несут особое, таинственное
служение людям: верующие идут к ним за утешением и духовным руководством, за молитвой и советом, а порой
даже за исцелениями и предсказаниями. Цикл фильмов рассказывает о самых известных старцах XX века в ярких
воспоминаниях их собратьев и прихожан.


Видео: 720х576 (4:3), 25.000 fps, AVC(H.264), ~2 988 Kbps, 0.288 bit/pixel
Аудио: 48 kHz, MPEG Layer 3, 2 ch, ~192.00 kbps avg
(технические данные всех серий идентичны)
General
Unique ID : 77510411197211237931176925637830141991 (0x3A4FF65241E23F3949F4A401F8526827)
Complete name : F:\Dowloads\Старцы\1. Старцы. Архиепископ Иоанн Шанхайский.mkv
Format : Matroska
File size : 602 MiB
Duration : 25mn 56s
Overall bit rate : 3 244 Kbps
Writing application : Lavf52.64.2
Writing library : Lavf52.64.2

Video
ID : 1
Format : AVC
Format/Info : Advanced Video Codec
Format profile :
Format settings, CABAC : Yes
Format settings, ReFrames : 3 frames
Format settings, GOP : M=1, N=56
Codec ID : V_MPEG4/ISO/AVC
Duration : 25mn 56s
Bit rate : 2 988 Kbps
Width : 720 pixels
Height : 576 pixels
Display aspect ratio : 4:3
Original display aspect ratio : 4:3
Frame rate : 25.000 fps
Standard : Component
Color space : YUV
Chroma subsampling : 4:2:0
Bit depth : 8 bits
Scan type : Interlaced
Scan order : Top Field First
Bits/(Pixel*Frame) : 0.288
Stream size : 554 MiB (92%)
Language : English
Color primaries : BT.470-6 System B, BT.470-6 System G, BT.601-6 625, BT.1358 625, BT.1700 625 PAL, BT.1700 625 SECAM
Transfer characteristics : BT.470-6 System B, BT.470-6 System G
Matrix coefficients : BT.470-6 System B, BT.470-6 System G, BT.601-6 625, BT.1358 625, BT.1700 625 PAL, BT.1700 625 SECAM, IEC 61966-2-4 601

Audio
ID : 2
Format : MPEG Audio
Format version : Version 1
Format profile : Layer 2
Codec ID : A_MPEG/L2
Codec ID/Hint : MP2
Duration : 25mn 56s
Bit rate mode : Constant
Bit rate : 192 Kbps
Channel(s) : 2 channels
Sampling rate : 48.0 KHz
Compression mode : Lossy
Delay relative to video : -40ms
Stream size : 35.6 MiB (6%)
Language : English / Russian

1. "Архиепископ Иоанн Шанхайский".

Русский эмигрант Михаил Максимович принял
постриг с именем Иоанн в Сербии, в 30-е годы получил архиерейскую кафедру в Шанхае, бежал вместе с русской
общиной на Филиппины. Он написал послание президенту США с просьбой открыть границу для нескольких тысяч
русских эмигрантов, каждый день сидел на ступеньках Капитолия, пока решение не было принято. Он был пастырем
и покровителем православной общины Сан-Франциско, ел один раз в день, и никогда не спал, только дремал по
несколько часов в кресле. "Сент Джон", как его называли американцы, часто ходил босиком, навещал православных
христиан в больницах, и по его молитвам происходило множество исцелений. В 93-м году мощи старца обнаружили
нетленными и причислили архиепископа Иоанна Шанхайского и Сан-Францисского к лику святых. О владыке рассказывают
воспитанники Шанхайского приюта, его духовные чада в Америке, русские эмигранты, среди которых и знаменитый
советский актер Родион Нахапетов. 4 мая, день

2. "Отец Николай Гурьянов".

Николай Гурьянов провел три года в лагерях, на строительстве железной дороги в
Заполярье. В 1942 году в оккупированной немцами Прибалтике, был рукоположен в священники, чудом избежал нового
ареста и поселился на острове Залит на Псковско-Чудском озере. В маленькой рыбацкой деревне прожил больше
сорока лет. Уже в начале 70-х его начали почитать как старца, и на затерянный остров потянулись паломники.
Очевидцы вспоминают о том, как старец читал их мысли, предсказывал будущее, и как его молитве было
подвластно все – даже погода. Отец Николай Гурьянов был интеллектуалом – сочинял духовные песнопения,
общался с Косыгиным и Тарковским, но любил принимать образ юродивого простачка. "Где просто – там ангелов
со сто, а где мудрено – там ни одного", - любил повторять он. Певица Ольга Кормухина и ее муж, музыкант
Алексей Белов рассказывают, как старец помог им создать семью.

3. "Архимандрит Гавриил Ургебадзе"

Во время первомайской демонстрации в Тбилиси в 1965 году отец Гавриил
Ургебадзе сжег огромный портрет Ленина. Его могли расстрелять, но спас диагноз "психопатическая личность,
верит в Бога и ангелов". Он проповедовал на улицах и площадях грузинской столицы, а во дворе своего дома из
подручных материалов построил маленький храм. Стены храма украсил иконами, которые находил на городских
свалках. В 71-м году отец Гавриил стал настоятелем женского монастыря в Самтавро – там он поселился в
курятнике, а сестер обучал смирению по собственной, жесткой методике. Он призывал к покаянию даже на митингах,
всегда молился о Грузии и о России.
Об архимандрите Гаврииле рассказывают: известный грузинский актер Давид Гиоргобиани, который часто с ним
общался, родные сестры старца Эмма и Джульетта, очевидцы его пророчеств и исцелений. В конце 2012-го года
Грузинская Православная Церковь прославила архимандрита Гавриила Ургебадзе в лике святых.

4. "Архимандрит Иоанн Крестьянкин".

"Всероссийский духовник" отец Иоанн жил в Псково-Печерском монастыре.
К нему ежедневно приезжали сотни паломников со всей страны. Отец Иоанн занимался духовным просвещением
верующих в годы государственного атеизма. Почти сорок лет отец Иоанн Крестьянкин прожил в монастыре, а
до этого пять лет провел в лагерях, после освобождения еще десять лет служил на Рязанщине, где власти
были недовольны активным священником и переводили его с прихода на приход. Его духовными чадами были и
многие московские священники – архимандрит Тихон Шевкунов, протоиерей Владимир Волгин, и известные актрисы
Екатерина Васильева и Любовь Стриженова. Они воспоминают о старце в фильме.








У вас нет необходимых прав для просмотра вложений в этом сообщении.