Год с Армин ван Бюреном / A Year with Armin van Buuren [2012, документальный, биография, HDTVRip 720р] VO

Торрент Сидеров Личеров Размер
torrent_87379.torrent
0 0 709.24 МБ
Аватара пользователя
Sid
Сообщения: 11619
Зарегистрирован: 15 янв 2012, 17:33

Год с Армин ван Бюреном / A Year with Armin van Buuren [2012, документальный, биография, HDTVRip 720р] VO

Сообщение Sid » 22 июл 2013, 00:34

Год с Армин ван Бюреном / A Year with Armin van Buuren

Перевод: Профессиональный (одноголосый, закадровый), cубтитры: отсутствуют
Формат: HDTVRip, MPEG, H.264, AAC
Страна: Голландия, KLM
Жанр: документальный, биография
Продолжительность: 00:51:28
Год выпуска: 2012

Описание: Специально для своих поклонников, а также для всех небезразличных голландец Armin van Buuren выпускает документальный фильм о себе. Презентация A Year With Armin van Buuren состоится сегодня, 6 октября.
В основу ленты, как это нетрудно догадаться, лег год из жизни Армина. Армин пишет музыку, Армин играет в футбол, Армин кушает. От гостиничных номеров и частных самолетов до родительского дома и крупнейших мировых танцполов – зритель сможет увидеть жизнь кумира под микроскопом и узнать, чем он живет и дышит.
[/fied]

Видео: 1280x720 (16:9), 25 fps, AVC(x264) ~1800 кбит/c, 0.078 bit/pixel
Аудио: 44100Hz, AAC, 2ch stereo, ~128kbps.
Общее
Полное имя : F:\A Year with Armin van Buuren (2012)HDRip720.mp4
Формат : MPEG-4
Профиль формата : Base Media
Идентификатор кодека : isom
Размер файла : 709 Мбайт
Продолжительность : 51 м.
Режим общего битрейта : Переменный
Общий поток : 1927 Кбит/сек
Программа кодирования : Lavf52.40.0

Видео
Идентификатор : 1
Формат : AVC
Формат/Информация : Advanced Video Codec
Профиль формата :
Параметр CABAC формата : Да
Параметр ReFrames формата : 3 кадра
Идентификатор кодека : avc1
Идентификатор кодека/Информация : Advanced Video Coding
Продолжительность : 51 м.
Битрейт : 1800 Кбит/сек
Ширина : 1280 пикселей
Высота : 720 пикселей
Соотношение сторон : 16:9
Режим частоты кадров : Постоянный
Частота кадров : 25,000 кадров/сек
Цветовое пространство : YUV
Субдискретизация насыщенности : 4:2:0
Битовая глубина : 8 бит
Тип развёртки : Прогрессивная
Бит/(Пиксели*Кадры) : 0.078
Размер потока : 660 Мбайт (93%)
Библиотека кодирования : x264 core 79
Настройки программы : cabac=1 / ref=3 / deblock=1:0:0 / analyse=0x3:0x113 / me=hex / subme=7 / psy=1 / psy_rd=1.0:0.0 / mixed_ref=1 / me_range=16 / chroma_me=1 / trellis=1 / 8x8dct=1 / cqm=0 / deadzone=21,11 / chroma_qp_offset=-2 / threads=24 / nr=0 / decimate=1 / mbaff=0 / constrained_intra=0 / bframes=3 / b_pyramid=0 / b_adapt=1 / b_bias=0 / direct=1 / wpredb=32 / wpredp=2 / keyint=250 / keyint_min=25 / scenecut=40 / rc_lookahead=40 / rc=abr / mbtree=1 / bitrate=1800 / ratetol=2.2 / qcomp=0.60 / qpmin=10 / qpmax=51 / qpstep=4 / ip_ratio=1.41 / aq=1:1.00

Аудио
Идентификатор : 2
Формат : AAC
Формат/Информация : Advanced Audio Codec
Профиль формата : LC
Идентификатор кодека : 40
Продолжительность : 51 м.
Вид битрейта : Переменный
Битрейт : 128 Кбит/сек
Каналы : 2 канала
Расположение каналов : Front: L R
Частота : 44,1 КГц
Метод сжатия : С потерями
Задержка видео : 40 мс.
Размер потока : 47,0 Мбайт (7%)
Язык : Russian



У вас нет необходимых прав для просмотра вложений в этом сообщении.