Тайны истории. Карл Великий - загадка первого императора/Geheimnisse der Geschichte. Karl der Grobe [1999, ист., TVRip]

Торрент Сидеров Личеров Размер
torrent_87743.torrent
6 1 684.05 МБ
Аватара пользователя
Sid
Сообщения: 11616
Зарегистрирован: 15 янв 2012, 17:33

Тайны истории. Карл Великий - загадка первого императора/Geheimnisse der Geschichte. Karl der Grobe [1999, ист., TVRip]

Сообщение Sid » 22 июл 2013, 01:25

Сфинкс: Тайны истории. Карл Великий - загадка первого императора / Geheimnisse der Geschichte. Karl der Große - Rätsel um den ersten Kaiser

Перевод: Профессиональный (одноголосый), cубтитры: отсутствуют
Формат: TVRip, AVI, XviD, MP3
Страна: Германия
Режиссер: Мартин Папировски, Луиза Вагнер-Руус / Martin Papirowski, Luise Wagner-Roos
Жанр: документальный (исторический)
Продолжительность: 00:51:28
Год выпуска: 1999
В ролях: Карл I Великий

Описание: Карл I Великий (747-814)– основатель династии Каролингов, создатель первой после римлян европейской империи и во многом определивший будущее Европы. Получив в наследие франкское царство, к концу присутствия на троне распространил свою власть на всю Центральную и Западную Европу – от Северного моря до Средиземного и от Атлантического океана до восточных берегов Адриатического моря. За время его царствования франки сделали 53 похода, из них 27 возглавлял сам Карл. Он больше всех правителей средневековья сделал для разработки законодательства, исследования латыни, сбора и переписки книжек, распространения христианского богословия.

Видео: 640x480 (4:3), 25 fps, XviD, 1717 kbps, 0.224 bit/pixel
Аудио: 48 kHz, MPEG Layer 3 (MP3), 2 ch., 128 kbps
Общее
Полное имя : Karl_[tfile.ru].avi
Формат : AVI
Формат/Информация : Audio Video Interleave
Размер файла : 684 Мбайт
Продолжительность : 51 м.
Общий поток : 1858 Кбит/сек
Программа кодирования : Lavf51.12.1

Видео
Идентификатор : 0
Формат : xvid
Идентификатор кодека : xvid
Продолжительность : 51 м.
Битрейт : 1717 Кбит/сек
Ширина : 640 пикс.
Высота : 480 пикс.
Соотношение сторон : 4:3
Частота кадров : 25,000 кадр/сек
Бит/(Пиксели*Кадры) : 0.224
Размер потока : 632 Мбайт (92%)

Аудио
Идентификатор : 1
Формат : MPEG Audio
Версия формата : Version 1
Профиль формата : Layer 3
Режим : Joint stereo
Расширение режима : MS Stereo
Идентификатор кодека : 55
Идентификатор кодека/Подсказка : MP3
Продолжительность : 51 м.
Вид битрейта : Постоянный
Битрейт : 128 Кбит/сек
Каналы : 2 канала
Частота : 48,0 КГц
Метод сжатия : С потерями
Размер потока : 47,1 Мбайт (7%)
Выравнивание : Соединение по промежуткам
Продолжительность промежутка : 24 мс. (0,60 видеокадр)










У вас нет необходимых прав для просмотра вложений в этом сообщении.