Ари (Семён Винокур) [2012, документальный, WEB-DL 720p]

Торрент Сидеров Личеров Размер
torrent_87765.torrent
0 0 561.26 МБ
Аватара пользователя
Sid
Сообщения: 11619
Зарегистрирован: 15 янв 2012, 17:33

Ари (Семён Винокур) [2012, документальный, WEB-DL 720p]

Сообщение Sid » 22 июл 2013, 01:27

Ари

Перевод: Не требуется, субтитры: отсутствуют
Формат: WEB-DL, MP4, H.264, AAC
Страна: Россия, Израиль
Режиссёр: Семён Винокур
Жанр: документальный
Продолжительность: 00:29:17
Год выпуска: 2012
В ролях: Александр Демидов, Морис Коэн
Описание: Исторический фильм о величайшем каббалисте 16 века Ари (Рабби Ицхак Лурия Ашкенази). В 16-м веке в Иерусалиме рождается мальчик, которому суждено было постичь главную тайну мироздания и открыть путь спасению человечества. В 35 лет, взойдя на вершину духовной лестницы, он появляется в Цфате, чтобы передать другим обретенную Мудрость. Он спешит, ведь жить ему остается всего... полтора года.

Видео: 1280x720 (16:9), 25 fps, MPEG-4 AVC (H.264) . 1625 kbps avg, 0.071 bit/pixel
Аудио: 44,1 kHz, AAC-LC, 2 ch, Front: L, R, 128 kbps avg
Общее
Полное имя : Тajnye_svjazi.mp4
Формат : MPEG-4
Профиль формата : Base Media / Version 2
Идентификатор кодека : mp42
Размер файла : 280 Мбайт
Продолжительность : 22 м.
Режим общего битрейта : Переменный
Общий поток : 1757 Кбит/сек
Дата кодирования : UTC 2011-02-09 13:11:03
Дата пометки : UTC 2011-02-09 13:11:03
gsst : 0
gstd : 1335680
gssd : B4A7DD8E4MH1335674641843314
gshh : o-o.preferred.bru02t11.v4.cache8.c.youtube.com
Видео
Идентификатор : 1
Формат : AVC
Формат/Информация : Advanced Video Codec
Профиль формата :
Параметр CABAC формата : Да
Параметр ReFrames формата : 1 кадр
Идентификатор кодека : avc1
Идентификатор кодека/Информация : Advanced Video Coding
Продолжительность : 22 м.
Битрейт : 1625 Кбит/сек
Максимальный битрейт : 7717 Кбит/сек
Ширина : 1280 пикселей
Высота : 720 пикселей
Соотношение сторон : 16:9
Режим частоты кадров : Постоянный
Частота кадров : 25,000 кадров/сек
Цветовое пространство : YUV
Субдискретизация насыщенности : 4:2:0
Битовая глубина : 8 бит
Тип развёртки : Прогрессивная
Бит/(Пиксели*Кадры) : 0.071
Размер потока : 259 Мбайт (92%)
Дата пометки : UTC 2011-02-09 13:11:09
Аудио
Идентификатор : 2
Формат : AAC
Формат/Информация : Advanced Audio Codec
Профиль формата : LC
Идентификатор кодека : 40
Продолжительность : 22 м.
Вид битрейта : Переменный
Битрейт : 128 Кбит/сек
Максимальный битрейт : 179 Кбит/сек
Каналы : 2 канала
Расположение каналов : Front: L R
Частота : 44,1 КГц
Метод сжатия : С потерями
Размер потока : 20,4 Мбайт (7%)
Заголовок : (C) 2007 Google Inc. v08.13.2007.
Дата кодирования : UTC 2011-02-09 13:11:06
Дата пометки



У вас нет необходимых прав для просмотра вложений в этом сообщении.