Анна Герман. Светит незнакомая звезда (Светлана Осадчук) [2004, Документальный, Биография, Музыка, DVDRip]

Торрент Сидеров Личеров Размер
torrent_88048.torrent
0 0 416.78 МБ
Аватара пользователя
Sid
Сообщения: 11619
Зарегистрирован: 15 янв 2012, 17:33

Анна Герман. Светит незнакомая звезда (Светлана Осадчук) [2004, Документальный, Биография, Музыка, DVDRip]

Сообщение Sid » 22 июл 2013, 02:07

Анна Герман. Светит незнакомая звезда
Перевод: Не требуется, cубтитры: отсутствуют
Формат: DVDRip, AVI, XviD, MP3
Страна: Россия
Режиссер: Светлана Осадчук
Жанр: Документальный, Биография, Музыка
Продолжительность: 00:40:37
Год выпуска: 2004

Описание: «Светит незнакомая звезда» - так называется документальный видеофильм об Анне Герман, созданный радиотелецентром «Голос Надежды». Зрители могут увидеть не только записи широко известных страниц творческой деятельности Анны Герман, но и услышать рассказы о ней самых дорогих и близких людей: матери и мужа певицы, ее друзей и коллег. Прозвучат и фрагменты записей последних песен Анны из домашнего архива, доныне еще неизвестных слушателям.

Видео: 704x528 (1.33:1), 25 fps, XviD build 9 ~1312 kbps avg, 0.14 bit/pixel
Аудио: 48 kHz, MPEG Layer 3, 2 ch, ~109.00 kbps avg

Общее
Полное имя : D:\Фильмы\Anna.German.Swetit.neznakomaja.zwezda.2004.XviD.DVDRip.avi
Формат : AVI
Формат/Информация : Audio Video Interleave
Размер файла : 417 Мбайт
Продолжительность : 40 м.
Режим общего битрейта : Переменный
Общий поток : 1435 Кбит/сек
Программа кодирования : VirtualDubMod 1.5.4.1 (build 2178/release)
Библиотека кодирования : VirtualDubMod build 2178/release

Видео
Идентификатор : 0
Формат : MPEG-4 Visual
Профиль формата : Simple@L3
Параметр BVOP формата : 1
Параметр QPel формата : Нет
Параметр GMC формата : Без точки перехода
Параметр матрицы формата : Выборочная
Идентификатор кодека : XVID
Идентификатор кодека/Подсказка : XviD
Продолжительность : 40 м.
Битрейт : 1313 Кбит/сек
Ширина : 704 пикселя
Высота : 528 пикселей
Соотношение сторон : 4:3
Частота кадров : 25,000 кадров/сек
Цветовое пространство : YUV
Субдискретизация насыщенности : 4:2:0
Битовая глубина : 8 бит
Тип развёртки : Прогрессивная
Метод сжатия : С потерями
Бит/(Пиксели*Кадры) : 0.141
Размер потока : 381 Мбайт (92%)
Библиотека кодирования : XviD 0.0.09 (UTC 2003-03-25)

Аудио
Идентификатор : 1
Формат : MPEG Audio
Версия формата : Version 1
Профиль формата : Layer 3
Режим : Joint stereo
Расширение режима : MS Stereo
Идентификатор кодека : 55
Идентификатор кодека/Подсказка : MP3
Продолжительность : 40 м.
Вид битрейта : Переменный
Битрейт : 109 Кбит/сек
Номинальный битрейт : 128 Кбит/сек
Каналы : 2 канала
Частота : 48,0 КГц
Метод сжатия : С потерями
Задержка видео : 24 мс.
Размер потока : 31,7 Мбайт (8%)
Выравнивание : Разделение по промежуткам
Продолжительность промежутка : 24 мс. (0,60 видеокадр)
Время предзагрузки промежутка : 246 мс.
Библиотека кодирования : LAME3.90.
Настройки программы : -m j -V 4 -q 2 -lowpass 17.6 --abr 128











У вас нет необходимых прав для просмотра вложений в этом сообщении.