Секретные Истории. Гиммлер. Судьба провокатора (Владимир Арясов) [2008, документальный, военная история, DVDRip-AVC]

Торрент Сидеров Личеров Размер
torrent_88056.torrent
0 0 584.48 МБ
Аватара пользователя
Sid
Сообщения: 11619
Зарегистрирован: 15 янв 2012, 17:33

Секретные Истории. Гиммлер. Судьба провокатора (Владимир Арясов) [2008, документальный, военная история, DVDRip-AVC]

Сообщение Sid » 22 июл 2013, 02:08

Секретные Истории. Гиммлер. Судьба провокатора
Перевод: Не требуется, cубтитры: отсутствуют
Формат: DVDRip-AVC, MKV, H.264, AC3
Страна: Россия
Режиссер: Владимир Арясов
Жанр: документальный, военная история
Продолжительность: 00:43:51
Год выпуска: 2008

Описание:
Генрих Гиммлер - одна из самых загадочных фигур среди вождей Третьего Рейха. И дело не только в том, что он руководил секретными службами. Неуловимой остается сама личность рейхсфюрера СС. Кто-то называл его умницей и интеллектуалом, кто-то - пустым болтуном, кто-то холодным и расчетливым убийцей, а кто-то - нерешительным слюнтяем. Но никто не мог предполагать, что к концу Второй Мировой войны Гиммлер станет нацистом "номер два" в Германии!
.

Видео: 1024 x 560 (1.85:1), 25 fps, AVC MPEG-4, ~1670 kbps avg, 0.116 bit/pixel
Аудио: 48 kHz, AC-3, 2 ch, (Front: L R) ~192 kbps avg

Format : Matroska
Format version : Version 2
File size : 584 MiB
Duration : 43mn 51s
Overall bit rate : 1 863 Kbps
Encoded date : UTC 2012-09-14 01:43:49
Writing application : mkvmerge v5.6.0 ('Kenya Kane') built on Jun 29 2012 15:01:44
Writing library : libebml v1.2.3 + libmatroska v1.3.0

Video
ID : 1
Format : AVC
Format/Info : Advanced Video Codec
Format profile :
Format settings, CABAC : Yes
Format settings, ReFrames : 5 frames
Codec ID : V_MPEG4/ISO/AVC
Duration : 43mn 51s
Bit rate : 1 670 Kbps
Width : 1 024 pixels
Height : 560 pixels
Display aspect ratio : 1.85:1
Frame rate mode : Constant
Frame rate : 25.000 fps
Color space : YUV
Chroma subsampling : 4:2:0
Bit depth : 8 bits
Scan type : Progressive
Bits/(Pixel*Frame) : 0.116
Stream size : 513 MiB (88%)
Writing library : x264 core 125 r2200 999b753
Encoding settings : cabac=1 / ref=5 / deblock=1:-2:-2 / analyse=0x3:0x111 / me=umh / subme=9 / psy=1 / psy_rd=0.00:0.10 / mixed_ref=1 / me_range=32 / chroma_me=1 / trellis=2 / 8x8dct=1 / cqm=0 / deadzone=21,11 / fast_pskip=0 / chroma_qp_offset=-1 / threads=3 / lookahead_threads=1 / sliced_threads=0 / nr=0 / decimate=1 / interlaced=0 / bluray_compat=0 / constrained_intra=0 / bframes=5 / b_pyramid=2 / b_adapt=0 / b_bias=0 / direct=1 / weightb=1 / open_gop=0 / weightp=2 / keyint=250 / keyint_min=25 / scenecut=40 / intra_refresh=0 / rc_lookahead=50 / rc=2pass / mbtree=1 / bitrate=1670 / ratetol=1.0 / qcomp=0.60 / qpmin=0 / qpmax=69 / qpstep=4 / cplxblur=20.0 / qblur=0.5 / ip_ratio=1.40 / aq=1:1.00
Default : Yes
Forced : No

Audio
ID : 2
Format : AC-3
Format/Info : Audio Coding 3
Mode extension : CM (complete main)
Format settings, Endianness : Big
Codec ID : A_AC3
Duration : 43mn 51s
Bit rate mode : Constant
Bit rate : 192 Kbps
Channel(s) : 2 channels
Channel positions : Front: L R
Sampling rate : 48.0 KHz
Bit depth : 16 bits
Compression mode : Lossy
Stream size : 60.2 MiB (10%)
Default : Yes
Forced : No




У вас нет необходимых прав для просмотра вложений в этом сообщении.