Ходорковский / Khodorkovsky (Сирил Туши) [2011, документальный, драма, биография, HDRip-AVC] DUB

Торрент Сидеров Личеров Размер
torrent_88092.torrent
0 0 2.29 ГБ
Аватара пользователя
Sid
Сообщения: 11619
Зарегистрирован: 15 янв 2012, 17:33

Ходорковский / Khodorkovsky (Сирил Туши) [2011, документальный, драма, биография, HDRip-AVC] DUB

Сообщение Sid » 22 июл 2013, 02:10

Ходорковский / Khodorkovsky
Перевод: Профессиональный (полное дублирование), cубтитры: отсутствуют
Формат: HDRip-AVC, MKV, H.264, AC3
Страна: Германия
Режиссер: Сирил Туши
Жанр: документальный, драма, биография
Продолжительность: 01:56:44
Год выпуска: 2011

В ролях: Михаил Ходорковский, Павел Ходорковский, Марина Ходорковская, Елена Ходорковская, Антон Дрель, Йошка Фишер, Владимир Путин, Джордж У. Буш, Анатолий Чубайс, Григорий Явлинский

Описание: Фильм "Ходорковский" рассказывает о жизни Михаила от рождения в семье инженера до заключения под стражу уже, будучи олигархом. Работа над драмой продолжалась пять лет, за которые были несколько раз проверены сведения, используемые в фильме. Из фильма вы узнаете всю правду об отношениях Михаила Ходорковского с властью и лично с Путиным. И не только это...



СЕМПЛ

Видео: 1024x436 (2,35:1), 24 fps, AVC (x264) , ~2625 Кбит/сек, 0.245 bit/pixel
Аудио: 48.0 kHz, AC3, 2 ch, (Front: L R) ~ 192 Kbps avg

Доп. информация
Сохранены оригинальные чаптеры как на Blu-Ray

Формат : Matroska
Размер файла : 2,29 Гбайт
Продолжительность : 1 ч. 56 м.
Общий поток : 2814 Кбит/сек
Название фильма : Hodorkovskij.2011.x264.BDRip.(AVC).ExKinoRay
Дата кодирования : UTC 2012-08-22 19:24:31
Программа кодирования : mkvmerge v4.0.0 ('The Stars were mine') сборка от Jun 6 2010 16:18:42
Библиотека кодирования : libebml v1.0.0 + libmatroska v1.0.0

Видео
Идентификатор : 1
Формат : AVC
Формат/Информация : Advanced Video Codec
Профиль формата :
Параметр CABAC формата : Да
Параметр ReFrames формата : 6 кадров
Идентификатор кодека : V_MPEG4/ISO/AVC
Продолжительность : 1 ч. 56 м.
Битрейт : 2625 Кбит/сек
Ширина : 1024 пикс.
Высота : 436 пикс.
Соотношение сторон : 2,35:1
Частота кадров : 24,000 кадр/сек
Цветовое пространство : YUV
Подвыборка цветности : 4:2:0
Битовая глубина : 8 бит
Тип развёртки : Прогрессивная
Бит/(Пиксели*Кадры) : 0.245
Размер потока : 2,09 Гбайт (91%)
Заголовок : Rip by Enigma-Vladislav71
Библиотека кодирования : x264 core 92 r1510 33d382a
Настройки программы : cabac=1 / ref=6 / deblock=1:-2:-2 / analyse=0x3:0x133 / me=umh / subme=9 / psy=1 / psy_rd=1.00:0.00 / mixed_ref=1 / me_range=24 / chroma_me=1 / trellis=2 / 8x8dct=1 / cqm=0 / deadzone=21,11 / fast_pskip=0 / chroma_qp_offset=-2 / threads=3 / sliced_threads=0 / nr=0 / decimate=1 / interlaced=0 / constrained_intra=0 / bframes=6 / b_pyramid=2 / b_adapt=2 / b_bias=0 / direct=3 / wpredb=1 / wpredp=2 / keyint=240 / keyint_min=23 / scenecut=40 / intra_refresh=0 / rc=2pass / mbtree=0 / bitrate=2625 / ratetol=1.0 / qcomp=0.60 / qpmin=10 / qpmax=51 / qpstep=4 / cplxblur=20.0 / qblur=0.5 / ip_ratio=1.40 / pb_ratio=1.30 / aq=1:1.00

Аудио
Идентификатор : 2
Формат : AC-3
Формат/Информация : Audio Coding 3
Расширение режима : CM (complete main)
Идентификатор кодека : A_AC3
Продолжительность : 1 ч. 56 м.
Вид битрейта : Постоянный
Битрейт : 192 Кбит/сек
Каналы : 2 канала
Расположение каналов : Front: L R
Частота : 48,0 КГц
Битовая глубина : 16 бит
Метод сжатия : С потерями
Размер потока : 160 Мбайт (7%)
Язык : Russian

Меню
00:00:00.000 : en:Chapter 01
00:14:43.416 : en:Chapter 02
00:29:14.041 : en:Chapter 03
00:45:49.041 : en:Chapter 04
01:00:49.708 : en:Chapter 05
01:13:31.250 : en:Chapter 06
01:26:42.250 : en:Chapter 07
01:41:24.375 : en:Chapter 08





У вас нет необходимых прав для просмотра вложений в этом сообщении.