[Sonic Academy, RusTuts.com] Теория музыки — гаммы и лады [2011, RUS]

Видео уроки, книги, учебники по созданию музыки, работа с звуковыми редакторами
Торрент Сидеров Личеров Размер
torrent_95348.torrent
51 16 358.44 МБ
Аватара пользователя
Таточка
Сообщения: 13173
Зарегистрирован: 08 янв 2012, 19:02

[Sonic Academy, RusTuts.com] Теория музыки — гаммы и лады [2011, RUS]

Сообщение Таточка » 10 авг 2013, 05:12

Теория музыки — гаммы и лады

Год выпуска: 2011
Производитель: Sonic Academy, RusTuts.com
Сайт производителя: RusTuts.com
Автор: Джэми Шмидт
Продолжительность: 00:53
Тип раздаваемого материала: Видеоурок
Язык: Русский
Описание: Этот курс по теории музыки предназначен для промежуточного уровня и является продолжением курса «Теория музыки для новичков. Лады». Здесь вы узнаете о гаммах и ладах. Знания о ладах очень важны, так как с их помощью можно написать бесчисленное множество интересных и уникальных мелодий. Эксперт Sonic Academy, Джэми Шмидт, не останавливается на теории, а уделяет больше внимания практике.
Содержание
01. Квинтовый круг
02. Мажорная гамма
03. Минорная гамма
04. Лады
05. Лад и мелодия
Файлы примеров: не предусмотрены
Формат видео: AVI
Видео: AVC, 698x904, 1,592, 25 кадров/сек, 698 Кбит/сек
Аудио: MP3, 44,1 КГц, 320 Кбит/сек, Joint stereo
Скриншоты
Доп. информация:
MediaInfo
Общее
Полное имя : C:\Users\Woozya\Desktop\01. Квинтовый круг - [rustuts.com].avi
Формат : AVI
Формат/Информация : Audio Video Interleave
Размер файла : 56,3 Мбайт
Продолжительность : 7 м. 39 с.
Общий поток : 1028 Кбит/сек
Библиотека кодирования : VirtualDub build 32842/release

Видео
Идентификатор : 0
Формат : AVC
Формат/Информация : Advanced Video Codec
Профиль формата : High@L3.1
Параметр CABAC формата : Да
Параметр ReFrames формата : 3 кадра
Идентификатор кодека : H264
Продолжительность : 7 м. 39 с.
Битрейт : 698 Кбит/сек
Ширина : 904 пикселя
Высота : 568 пикселей
Соотношение сторон : 1,592
Частота кадров : 25,000 кадров/сек
Цветовое пространство : YUV
Субдискретизация насыщенности : 4:2:0
Битовая глубина : 8 бит
Тип развёртки : Прогрессивная
Бит/(Пиксели*Кадры) : 0.054
Размер потока : 38,2 Мбайт (68%)
Библиотека кодирования : x264 core 115 r2008bm 4c552d8
Настройки программы : cabac=1 / ref=3 / deblock=1:0:0 / analyse=0x3:0x113 / me=hex / subme=7 / psy=1 / psy_rd=1.00:0.00 / mixed_ref=1 / me_range=16 / chroma_me=1 / trellis=1 / 8x8dct=1 / cqm=0 / deadzone=21,11 / fast_pskip=1 / chroma_qp_offset=-2 / threads=2 / sliced_threads=1 / slices=2 / nr=0 / decimate=1 / interlaced=0 / bluray_compat=0 / constrained_intra=0 / bframes=0 / weightp=2 / keyint=250 / keyint_min=25 / scenecut=40 / intra_refresh=0 / rc=crf / mbtree=0 / crf=22.1 / qcomp=0.60 / qpmin=0 / qpmax=69 / qpstep=4 / ip_ratio=1.40 / aq=1:1.00

Аудио
Идентификатор : 1
Формат : MPEG Audio
Версия формата : Version 1
Профиль формата : Layer 3
Режим : Joint stereo
Расширение режима : MS Stereo
Идентификатор кодека : 55
Идентификатор кодека/Подсказка : MP3
Продолжительность : 7 м. 39 с.
Вид битрейта : Постоянный
Битрейт : 320 Кбит/сек
Каналы : 2 канала
Частота : 44,1 КГц
Метод сжатия : С потерями
Размер потока : 17,5 Мбайт (31%)
Выравнивание : Разделение по промежуткам
Продолжительность промежутка : 40 мс. (1,00 видеокадр)
Время предзагрузки промежутка : 500 мс.
Библиотека кодирования : LAME3.98.2
Огромная благодарность за составление релиза RusTuts
У вас нет необходимых прав для просмотра вложений в этом сообщении.

Аватара пользователя
reprime
Сообщения: 16
Зарегистрирован: 02 окт 2014, 15:26

Re: [Sonic Academy, RusTuts.com] Теория музыки — гаммы и лады [2011, RUS]

Сообщение reprime » 02 окт 2014, 20:34

Раздача еще жива?!