Minusmaker | Видеоуроки Native Instruments - Kontakt [2012] PCRec[Русский]

Видео уроки, книги, учебники по созданию музыки, работа с звуковыми редакторами
Торрент Сидеров Личеров Размер
torrent_97642.torrent
9 6 322.73 МБ
Аватара пользователя
Sid
Сообщения: 11619
Зарегистрирован: 15 янв 2012, 17:33

Minusmaker | Видеоуроки Native Instruments - Kontakt [2012] PCRec[Русский]

Сообщение Sid » 16 авг 2013, 02:18

Minusmaker|Видеоуроки Native Instruments - Kontakt [2012] PCRec[Русский]

Автор (режиссер): Minusmaker
Название: Видеоуроки Native Instruments - Kontakt
Год выпуска: 2012
Жанр: Создание музыки
Язык: Русский
Качество видео: PCRec
Видеокодек: XVID
Битрейт видео: ~273 Кбит/сек
Размер кадра: 720x576
Аудиокодек: MP3
Битрейт аудио: 192 Кбит/сек

Описание:
Kontakt - стандарт в мире семплеров. Большинство пользователей не используют и десятой доли тех возможностей, которые в него заложены. Пятая версия несёт в себе огромное количество улучшений и исправлений. Как то - новые профессиональные эффекты: SOLID G-EQ, SOLID BUS COMP, TRANSIENT MASTER, TAPE SATURATOR. Целых 37 новых фильтров и другое. Видеоуроки по навыкам владения популярной программы создания музыки.
01. Введение. Настройка аудио и MIDI параметров
02. Основные элементы интерфейса. Управление пресетами
03. Элементы главного окна KONTAKT
04. Меню Options
05. Функция чистки и индикаторы быстродействия
06. Стойка в режиме мультиинструмента
07. Стойка в режиме редактирования инструмента
08. Загрузка и создание инструментов. Окно Samples Missing
09. Создание и использование инструментальных банков
10. Браузер KONTAKT
Общее
Полное имя : D:\Downloads\Native Instruments - Kontakt v.5.0.2\Видеоуроки - Kontakt 5(Russian Tuttorials by Minusmaker)\01 - Введение. Настройка аудио и MIDI параметров.avi
Формат : AVI
Формат/Информация : Audio Video Interleave
Размер файла : 23,3 Мбайт
Продолжительность : 6 м. 48 с.
Общий поток : 478 Кбит/сек
Программа кодирования : MEncoder SVN-r30881(20100311-gcc4.3.3)
Библиотека кодирования : MPlayer

Видео
Идентификатор : 0
Формат : MPEG-4 Visual
Профиль формата : Advanced Simple@L5
Параметр BVOP формата : 2
Параметр QPel формата : Нет
Параметр GMC формата : Без точки перехода
Параметр матрицы формата : Default (H.263)
Идентификатор кодека : XVID
Идентификатор кодека/Подсказка : XviD
Продолжительность : 6 м. 48 с.
Битрейт : 273 Кбит/сек
Ширина : 720 пикс.
Высота : 576 пикс.
Соотношение сторон : 5:4
Частота кадров : 30,000 кадр/сек
Стандарт вещания : PAL
Цветовое пространство : YUV
Подвыборка цветности : 4:2:0
Битовая глубина : 8 бит
Тип развёртки : Прогрессивная
Метод сжатия : С потерями
Бит/(Пиксели*Кадры) : 0.022
Размер потока : 13,3 Мбайт (57%)
Библиотека кодирования : XviD 1.2.1 (UTC 2008-12-04)

Аудио
Идентификатор : 1
Формат : MPEG Audio
Версия формата : Version 1
Профиль формата : Layer 3
Режим : Joint stereo
Расширение режима : MS Stereo
Идентификатор кодека : 55
Идентификатор кодека/Подсказка : MP3
Продолжительность : 6 м. 48 с.
Вид битрейта : Постоянный
Битрейт : 192 Кбит/сек
Каналы : 2 канала
Частота : 44,1 КГц
Метод сжатия : С потерями
Задержка видео : 67 мс.
Размер потока : 9,36 Мбайт (40%)
Выравнивание : Соединение по промежуткам
Продолжительность промежутка : 26 мс. (0,78 видеокадр)
Время предзагрузки промежутка : 522 ms
Библиотека кодирования : LAME3.98

Общее
Полное имя : D:\Downloads\Native Instruments - Kontakt v.5.0.2\Видеоуроки - Kontakt 5(Russian Tuttorials by Minusmaker)\02 - Основные элементы интерфейса. Управление пресетами.avi
Формат : AVI
Формат/Информация : Audio Video Interleave
Размер файла : 26,3 Мбайт
Продолжительность : 7 м. 46 с.
Общий поток : 474 Кбит/сек
Программа кодирования : MEncoder SVN-r30881(20100311-gcc4.3.3)
Библиотека кодирования : MPlayer

Видео
Идентификатор : 0
Формат : MPEG-4 Visual
Профиль формата : Advanced Simple@L5
Параметр BVOP формата : 2
Параметр QPel формата : Нет
Параметр GMC формата : Без точки перехода
Параметр матрицы формата : Default (H.263)
Идентификатор кодека : XVID
Идентификатор кодека/Подсказка : XviD
Продолжительность : 7 м. 46 с.
Битрейт : 268 Кбит/сек
Ширина : 720 пикс.
Высота : 576 пикс.
Соотношение сторон : 5:4
Частота кадров : 30,000 кадр/сек
Стандарт вещания : PAL
Цветовое пространство : YUV
Подвыборка цветности : 4:2:0
Битовая глубина : 8 бит
Тип развёртки : Прогрессивная
Метод сжатия : С потерями
Бит/(Пиксели*Кадры) : 0.022
Размер потока : 14,9 Мбайт (57%)
Библиотека кодирования : XviD 1.2.1 (UTC 2008-12-04)

Аудио
Идентификатор : 1
Формат : MPEG Audio
Версия формата : Version 1
Профиль формата : Layer 3
Режим : Joint stereo
Расширение режима : MS Stereo
Идентификатор кодека : 55
Идентификатор кодека/Подсказка : MP3
Продолжительность : 7 м. 46 с.
Вид битрейта : Постоянный
Битрейт : 192 Кбит/сек
Каналы : 2 канала
Частота : 44,1 КГц
Метод сжатия : С потерями
Задержка видео : 67 мс.
Размер потока : 10,7 Мбайт (41%)
Выравнивание : Соединение по промежуткам
Продолжительность промежутка : 26 мс. (0,78 видеокадр)
Время предзагрузки промежутка : 522 ms
Библиотека кодирования : LAME3.98

Общее
Полное имя : D:\Downloads\Native Instruments - Kontakt v.5.0.2\Видеоуроки - Kontakt 5(Russian Tuttorials by Minusmaker)\03 - Элементы главного окна KONTAKT.avi
Формат : AVI
Формат/Информация : Audio Video Interleave
Размер файла : 52,0 Мбайт
Продолжительность : 16 м.
Общий поток : 441 Кбит/сек
Программа кодирования : MEncoder SVN-r30881(20100311-gcc4.3.3)
Библиотека кодирования : MPlayer

Видео
Идентификатор : 0
Формат : MPEG-4 Visual
Профиль формата : Advanced Simple@L5
Параметр BVOP формата : 2
Параметр QPel формата : Нет
Параметр GMC формата : Без точки перехода
Параметр матрицы формата : Default (H.263)
Идентификатор кодека : XVID
Идентификатор кодека/Подсказка : XviD
Продолжительность : 16 м.
Битрейт : 235 Кбит/сек
Ширина : 720 пикс.
Высота : 576 пикс.
Соотношение сторон : 5:4
Частота кадров : 30,000 кадр/сек
Стандарт вещания : PAL
Цветовое пространство : YUV
Подвыборка цветности : 4:2:0
Битовая глубина : 8 бит
Тип развёртки : Прогрессивная
Метод сжатия : С потерями
Бит/(Пиксели*Кадры) : 0.019
Размер потока : 27,8 Мбайт (53%)
Библиотека кодирования : XviD 1.2.1 (UTC 2008-12-04)

Аудио
Идентификатор : 1
Формат : MPEG Audio
Версия формата : Version 1
Профиль формата : Layer 3
Режим : Joint stereo
Расширение режима : MS Stereo
Идентификатор кодека : 55
Идентификатор кодека/Подсказка : MP3
Продолжительность : 16 м.
Вид битрейта : Постоянный
Битрейт : 192 Кбит/сек
Каналы : 2 канала
Частота : 44,1 КГц
Метод сжатия : С потерями
Задержка видео : 67 мс.
Размер потока : 22,6 Мбайт (44%)
Выравнивание : Соединение по промежуткам
Продолжительность промежутка : 26 мс. (0,78 видеокадр)
Время предзагрузки промежутка : 522 ms
Библиотека кодирования : LAME3.98

Общее
Полное имя : D:\Downloads\Native Instruments - Kontakt v.5.0.2\Видеоуроки - Kontakt 5(Russian Tuttorials by Minusmaker)\04 - Меню Options.avi
Формат : AVI
Формат/Информация : Audio Video Interleave
Размер файла : 35,4 Мбайт
Продолжительность : 15 м.
Общий поток : 324 Кбит/сек
Программа кодирования : MEncoder SVN-r30881(20100311-gcc4.3.3)
Библиотека кодирования : MPlayer

Видео
Идентификатор : 0
Формат : MPEG-4 Visual
Профиль формата : Advanced Simple@L5
Параметр BVOP формата : 2
Параметр QPel формата : Нет
Параметр GMC формата : Без точки перехода
Параметр матрицы формата : Default (H.263)
Идентификатор кодека : XVID
Идентификатор кодека/Подсказка : XviD
Продолжительность : 15 м.
Битрейт : 119 Кбит/сек
Ширина : 720 пикс.
Высота : 576 пикс.
Соотношение сторон : 5:4
Частота кадров : 30,000 кадр/сек
Стандарт вещания : PAL
Цветовое пространство : YUV
Подвыборка цветности : 4:2:0
Битовая глубина : 8 бит
Тип развёртки : Прогрессивная
Метод сжатия : С потерями
Бит/(Пиксели*Кадры) : 0.010
Размер потока : 12,9 Мбайт (37%)
Библиотека кодирования : XviD 1.2.1 (UTC 2008-12-04)

Аудио
Идентификатор : 1
Формат : MPEG Audio
Версия формата : Version 1
Профиль формата : Layer 3
Режим : Joint stereo
Расширение режима : MS Stereo
Идентификатор кодека : 55
Идентификатор кодека/Подсказка : MP3
Продолжительность : 15 м.
Вид битрейта : Постоянный
Битрейт : 192 Кбит/сек
Каналы : 2 канала
Частота : 44,1 КГц
Метод сжатия : С потерями
Задержка видео : 67 мс.
Размер потока : 20,9 Мбайт (59%)
Выравнивание : Соединение по промежуткам
Продолжительность промежутка : 26 мс. (0,78 видеокадр)
Время предзагрузки промежутка : 522 ms
Библиотека кодирования : LAME3.98

Общее
Полное имя : D:\Downloads\Native Instruments - Kontakt v.5.0.2\Видеоуроки - Kontakt 5(Russian Tuttorials by Minusmaker)\05 - Функция чистки и индикаторы быстродействия.avi
Формат : AVI
Формат/Информация : Audio Video Interleave
Размер файла : 23,1 Мбайт
Продолжительность : 7 м. 22 с.
Общий поток : 437 Кбит/сек
Программа кодирования : MEncoder SVN-r30881(20100311-gcc4.3.3)
Библиотека кодирования : MPlayer

Видео
Идентификатор : 0
Формат : MPEG-4 Visual
Профиль формата : Advanced Simple@L5
Параметр BVOP формата : 2
Параметр QPel формата : Нет
Параметр GMC формата : Без точки перехода
Параметр матрицы формата : Default (H.263)
Идентификатор кодека : XVID
Идентификатор кодека/Подсказка : XviD
Продолжительность : 7 м. 22 с.
Битрейт : 232 Кбит/сек
Ширина : 720 пикс.
Высота : 576 пикс.
Соотношение сторон : 5:4
Частота кадров : 30,000 кадр/сек
Стандарт вещания : PAL
Цветовое пространство : YUV
Подвыборка цветности : 4:2:0
Битовая глубина : 8 бит
Тип развёртки : Прогрессивная
Метод сжатия : С потерями
Бит/(Пиксели*Кадры) : 0.019
Размер потока : 12,2 Мбайт (53%)
Библиотека кодирования : XviD 1.2.1 (UTC 2008-12-04)

Аудио
Идентификатор : 1
Формат : MPEG Audio
Версия формата : Version 1
Профиль формата : Layer 3
Режим : Joint stereo
Расширение режима : MS Stereo
Идентификатор кодека : 55
Идентификатор кодека/Подсказка : MP3
Продолжительность : 7 м. 22 с.
Вид битрейта : Постоянный
Битрейт : 192 Кбит/сек
Каналы : 2 канала
Частота : 44,1 КГц
Метод сжатия : С потерями
Задержка видео : 67 мс.
Размер потока : 10,1 Мбайт (44%)
Выравнивание : Соединение по промежуткам
Продолжительность промежутка : 26 мс. (0,78 видеокадр)
Время предзагрузки промежутка : 522 ms
Библиотека кодирования : LAME3.98

Общее
Полное имя : D:\Downloads\Native Instruments - Kontakt v.5.0.2\Видеоуроки - Kontakt 5(Russian Tuttorials by Minusmaker)\06 - Стойка в режиме мультиинструмента.avi
Формат : AVI
Формат/Информация : Audio Video Interleave
Размер файла : 23,2 Мбайт
Продолжительность : 10 м.
Общий поток : 324 Кбит/сек
Программа кодирования : MEncoder SVN-r30881(20100311-gcc4.3.3)
Библиотека кодирования : MPlayer

Видео
Идентификатор : 0
Формат : MPEG-4 Visual
Профиль формата : Advanced Simple@L5
Параметр BVOP формата : 2
Параметр QPel формата : Нет
Параметр GMC формата : Без точки перехода
Параметр матрицы формата : Default (H.263)
Идентификатор кодека : XVID
Идентификатор кодека/Подсказка : XviD
Продолжительность : 10 м.
Битрейт : 118 Кбит/сек
Ширина : 720 пикс.
Высота : 576 пикс.
Соотношение сторон : 5:4
Частота кадров : 30,000 кадр/сек
Стандарт вещания : PAL
Цветовое пространство : YUV
Подвыборка цветности : 4:2:0
Битовая глубина : 8 бит
Тип развёртки : Прогрессивная
Метод сжатия : С потерями
Бит/(Пиксели*Кадры) : 0.009
Размер потока : 8,45 Мбайт (36%)
Библиотека кодирования : XviD 1.2.1 (UTC 2008-12-04)

Аудио
Идентификатор : 1
Формат : MPEG Audio
Версия формата : Version 1
Профиль формата : Layer 3
Режим : Joint stereo
Расширение режима : MS Stereo
Идентификатор кодека : 55
Идентификатор кодека/Подсказка : MP3
Продолжительность : 10 м.
Вид битрейта : Постоянный
Битрейт : 192 Кбит/сек
Каналы : 2 канала
Частота : 44,1 КГц
Метод сжатия : С потерями
Задержка видео : 67 мс.
Размер потока : 13,7 Мбайт (59%)
Выравнивание : Соединение по промежуткам
Продолжительность промежутка : 26 мс. (0,78 видеокадр)
Время предзагрузки промежутка : 522 ms
Библиотека кодирования : LAME3.98

Общее
Полное имя : D:\Downloads\Native Instruments - Kontakt v.5.0.2\Видеоуроки - Kontakt 5(Russian Tuttorials by Minusmaker)\07 - Стойка в режиме редактирования инструмента.avi
Формат : AVI
Формат/Информация : Audio Video Interleave
Размер файла : 50,7 Мбайт
Продолжительность : 17 м.
Общий поток : 411 Кбит/сек
Программа кодирования : MEncoder SVN-r30881(20100311-gcc4.3.3)
Библиотека кодирования : MPlayer

Видео
Идентификатор : 0
Формат : MPEG-4 Visual
Профиль формата : Advanced Simple@L5
Параметр BVOP формата : 2
Параметр QPel формата : Нет
Параметр GMC формата : Без точки перехода
Параметр матрицы формата : Default (H.263)
Идентификатор кодека : XVID
Идентификатор кодека/Подсказка : XviD
Продолжительность : 17 м.
Битрейт : 206 Кбит/сек
Ширина : 720 пикс.
Высота : 576 пикс.
Соотношение сторон : 5:4
Частота кадров : 30,000 кадр/сек
Стандарт вещания : PAL
Цветовое пространство : YUV
Подвыборка цветности : 4:2:0
Битовая глубина : 8 бит
Тип развёртки : Прогрессивная
Метод сжатия : С потерями
Бит/(Пиксели*Кадры) : 0.017
Размер потока : 25,4 Мбайт (50%)
Библиотека кодирования : XviD 1.2.1 (UTC 2008-12-04)

Аудио
Идентификатор : 1
Формат : MPEG Audio
Версия формата : Version 1
Профиль формата : Layer 3
Режим : Joint stereo
Расширение режима : MS Stereo
Идентификатор кодека : 55
Идентификатор кодека/Подсказка : MP3
Продолжительность : 17 м.
Вид битрейта : Постоянный
Битрейт : 192 Кбит/сек
Каналы : 2 канала
Частота : 44,1 КГц
Метод сжатия : С потерями
Задержка видео : 67 мс.
Размер потока : 23,7 Мбайт (47%)
Выравнивание : Соединение по промежуткам
Продолжительность промежутка : 26 мс. (0,78 видеокадр)
Время предзагрузки промежутка : 522 ms
Библиотека кодирования : LAME3.98

Общее
Полное имя : D:\Downloads\Native Instruments - Kontakt v.5.0.2\Видеоуроки - Kontakt 5(Russian Tuttorials by Minusmaker)\08 - Загрузка и создание инструментов. Окно Samples Missing.avi
Формат : AVI
Формат/Информация : Audio Video Interleave
Размер файла : 28,3 Мбайт
Продолжительность : 12 м.
Общий поток : 328 Кбит/сек
Программа кодирования : MEncoder SVN-r30881(20100311-gcc4.3.3)
Библиотека кодирования : MPlayer

Видео
Идентификатор : 0
Формат : MPEG-4 Visual
Профиль формата : Advanced Simple@L5
Параметр BVOP формата : 2
Параметр QPel формата : Нет
Параметр GMC формата : Без точки перехода
Параметр матрицы формата : Default (H.263)
Идентификатор кодека : XVID
Идентификатор кодека/Подсказка : XviD
Продолжительность : 12 м.
Битрейт : 123 Кбит/сек
Ширина : 720 пикс.
Высота : 576 пикс.
Соотношение сторон : 5:4
Частота кадров : 30,000 кадр/сек
Стандарт вещания : PAL
Цветовое пространство : YUV
Подвыборка цветности : 4:2:0
Битовая глубина : 8 бит
Тип развёртки : Прогрессивная
Метод сжатия : С потерями
Бит/(Пиксели*Кадры) : 0.010
Размер потока : 10,6 Мбайт (37%)
Библиотека кодирования : XviD 1.2.1 (UTC 2008-12-04)

Аудио
Идентификатор : 1
Формат : MPEG Audio
Версия формата : Version 1
Профиль формата : Layer 3
Режим : Joint stereo
Расширение режима : MS Stereo
Идентификатор кодека : 55
Идентификатор кодека/Подсказка : MP3
Продолжительность : 12 м.
Вид битрейта : Постоянный
Битрейт : 192 Кбит/сек
Каналы : 2 канала
Частота : 44,1 КГц
Метод сжатия : С потерями
Задержка видео : 67 мс.
Размер потока : 16,6 Мбайт (58%)
Выравнивание : Соединение по промежуткам
Продолжительность промежутка : 26 мс. (0,78 видеокадр)
Время предзагрузки промежутка : 522 ms
Библиотека кодирования : LAME3.98

Общее
Полное имя : D:\Downloads\Native Instruments - Kontakt v.5.0.2\Видеоуроки - Kontakt 5(Russian Tuttorials by Minusmaker)\09 - Создание и использование инструментальных банков.avi
Формат : AVI
Формат/Информация : Audio Video Interleave
Размер файла : 25,2 Мбайт
Продолжительность : 9 м. 42 с.
Общий поток : 363 Кбит/сек
Программа кодирования : MEncoder SVN-r30881(20100311-gcc4.3.3)
Библиотека кодирования : MPlayer

Видео
Идентификатор : 0
Формат : MPEG-4 Visual
Профиль формата : Advanced Simple@L5
Параметр BVOP формата : 2
Параметр QPel формата : Нет
Параметр GMC формата : Без точки перехода
Параметр матрицы формата : Default (H.263)
Идентификатор кодека : XVID
Идентификатор кодека/Подсказка : XviD
Продолжительность : 9 м. 41 с.
Битрейт : 158 Кбит/сек
Ширина : 720 пикс.
Высота : 576 пикс.
Соотношение сторон : 5:4
Частота кадров : 30,000 кадр/сек
Стандарт вещания : PAL
Цветовое пространство : YUV
Подвыборка цветности : 4:2:0
Битовая глубина : 8 бит
Тип развёртки : Прогрессивная
Метод сжатия : С потерями
Бит/(Пиксели*Кадры) : 0.013
Размер потока : 10,9 Мбайт (43%)
Библиотека кодирования : XviD 1.2.1 (UTC 2008-12-04)

Аудио
Идентификатор : 1
Формат : MPEG Audio
Версия формата : Version 1
Профиль формата : Layer 3
Режим : Joint stereo
Расширение режима : MS Stereo
Идентификатор кодека : 55
Идентификатор кодека/Подсказка : MP3
Продолжительность : 9 м. 42 с.
Вид битрейта : Постоянный
Битрейт : 192 Кбит/сек
Каналы : 2 канала
Частота : 44,1 КГц
Метод сжатия : С потерями
Задержка видео : 67 мс.
Размер потока : 13,3 Мбайт (53%)
Выравнивание : Соединение по промежуткам
Продолжительность промежутка : 26 мс. (0,78 видеокадр)
Время предзагрузки промежутка : 522 ms
Библиотека кодирования : LAME3.98

Общее
Полное имя : D:\Downloads\Native Instruments - Kontakt v.5.0.2\Видеоуроки - Kontakt 5(Russian Tuttorials by Minusmaker)\10 - Браузер KONTAKT.avi
Формат : AVI
Формат/Информация : Audio Video Interleave
Размер файла : 35,2 Мбайт
Продолжительность : 11 м.
Общий поток : 444 Кбит/сек
Программа кодирования : MEncoder SVN-r30881(20100311-gcc4.3.3)
Библиотека кодирования : MPlayer

Видео
Идентификатор : 0
Формат : MPEG-4 Visual
Профиль формата : Advanced Simple@L5
Параметр BVOP формата : 2
Параметр QPel формата : Нет
Параметр GMC формата : Без точки перехода
Параметр матрицы формата : Default (H.263)
Идентификатор кодека : XVID
Идентификатор кодека/Подсказка : XviD
Продолжительность : 11 м.
Битрейт : 239 Кбит/сек
Ширина : 720 пикс.
Высота : 576 пикс.
Соотношение сторон : 5:4
Частота кадров : 30,000 кадр/сек
Стандарт вещания : PAL
Цветовое пространство : YUV
Подвыборка цветности : 4:2:0
Битовая глубина : 8 бит
Тип развёртки : Прогрессивная
Метод сжатия : С потерями
Бит/(Пиксели*Кадры) : 0.019
Размер потока : 18,9 Мбайт (54%)
Библиотека кодирования : XviD 1.2.1 (UTC 2008-12-04)

Аудио
Идентификатор : 1
Формат : MPEG Audio
Версия формата : Version 1
Профиль формата : Layer 3
Режим : Joint stereo
Расширение режима : MS Stereo
Идентификатор кодека : 55
Идентификатор кодека/Подсказка : MP3
Продолжительность : 11 м.
Вид битрейта : Постоянный
Битрейт : 192 Кбит/сек
Каналы : 2 канала
Частота : 44,1 КГц
Метод сжатия : С потерями
Задержка видео : 67 мс.
Размер потока : 15,2 Мбайт (43%)
Выравнивание : Соединение по промежуткам
Продолжительность промежутка : 26 мс. (0,78 видеокадр)
Время предзагрузки промежутка : 522 ms
Библиотека кодирования : LAME3.98
Скриншоты:

Время раздачи:
С 00-15 до 08-00 Московского времени.
У вас нет необходимых прав для просмотра вложений в этом сообщении.