Фильм


Сообщение

Фильм Земля 2100 / Earth 2100 (2009) [H.264/720p] HDTV

Сообщение master » 03 сен 2013, 22:16

Земля 2100 / Earth 2100 (2009) [H.264/720p] HDTV

Русское название: Земля 2100
Оригинальное название: Earth 2100
Режиссер / Телекомпания: Руди Беднар
Год выпуска: 2009
Жанр: Документальный, Фантастика

Описание:
Идея, перед которой большинство из нас не стояло бы - что в течение следующего столетия, жизнь, какой мы знаем ее, может закончиться. Наша цивилизация может разрушиться, оставляя только следы человеческого существования. Чтобы изменить будущее, сначала Вы должны вообразить это. Это кажется диковинным, чрезвычайным - даже невозможным. Но согласно ультрасовременному научному исследованию, это - очень реальная возможность. И если мы продолжим жить как живем теперь, это может обязательно случится.



Продолжительность: 01:23:12

Перевод: Многоголосый закадровый, любительский

Видеокодек: MPEG-4 AVC/H.264
Битрейт видео: ~4 000 Kbps
Размер кадра: 1280x720
Качество видео: HDTV
Аудиокодек: AC3
Аудио #1: AC3, 192 kb/s, 2 ch (Русский)
Аудио #2: AC3, 448 kb/s, 6 ch (Английский)
General
Unique ID : 186729503456054808259943441419693211496 (0x8C7ACB520B861D51B84E063CF8603F68)
Complete name : C:\Users\....\Earth.2100.mkv
Format : Matroska
Format version : Version 2
File size : 2.67 GiB
Duration : 1h 23mn
Overall bit rate : 4 569 Kbps
Encoded date : UTC 2009-12-28 20:17:00
Writing application : mkvmerge v2.9.8 ('C'est le bon') built on Aug 13 2009 12:49:06
Writing library : libebml v0.7.7 + libmatroska v0.8.1

Video
ID : 1
Format : AVC
Format/Info : Advanced Video Codec
Format profile :
Format settings, CABAC : Yes
Format settings, ReFrames : 8 frames
Codec ID : V_MPEG4/ISO/AVC
Duration : 1h 23mn
Bit rate : 4 000 Kbps
Width : 1 280 pixels
Height : 720 pixels
Display aspect ratio : 16:9
Frame rate : 59.940 fps
Color space : YUV
Chroma subsampling : 4:2:0
Bit depth : 8 bits
Scan type : Progressive
Bits/(Pixel*Frame) : 0.072
Stream size : 2.25 GiB (84%)
Writing library : x264 core 67 r1153 7b6ce6a
Encoding settings : cabac=1 / ref=8 / deblock=1:-3:-3 / analyse=0x3:0x113 / me=umh / subme=7 / psy_rd=1.0:0.0 / mixed_ref=1 / me_range=30 / chroma_me=1 / trellis=1 / 8x8dct=1 / cqm=2 / deadzone=21,11 / chroma_qp_offset=-2 / threads=6 / nr=0 / decimate=1 / mbaff=0 / bframes=5 / b_pyramid=1 / b_adapt=2 / b_bias=0 / direct=1 / wpredb=1 / keyint=250 / keyint_min=25 / scenecut=40 / rc=2pass / bitrate=4000 / ratetol=7.0 / qcomp=0.60 / qpmin=10 / qpmax=51 / qpstep=4 / cplxblur=20.0 / qblur=0.5 / ip_ratio=1.40 / pb_ratio=1.30 / aq=1:1.05
Language : English
Default : Yes
Forced : No

Audio #1
ID : 2
Format : AC-3
Format/Info : Audio Coding 3
Mode extension : CM (complete main)
Codec ID : A_AC3
Duration : 1h 23mn
Bit rate mode : Constant
Bit rate : 192 Kbps
Channel(s) : 2 channels
Channel positions : Front: L R
Sampling rate : 48.0 KHz
Bit depth : 16 bits
Compression mode : Lossy
Stream size : 115 MiB (4%)
Title : Rus AC3 2.0
Language : Russian
Default : Yes
Forced : No

Audio #2
ID : 3
Format : AC-3
Format/Info : Audio Coding 3
Mode extension : CM (complete main)
Codec ID : A_AC3
Duration : 1h 23mn
Bit rate mode : Constant
Bit rate : 448 Kbps
Channel(s) : 6 channels
Channel positions : Front: L C R, Side: L R, LFE
Sampling rate : 48.0 KHz
Bit depth : 16 bits
Compression mode : Lossy
Stream size : 269 MiB (10%)
Title : Eng AC3 5.1
Language : English
Default : No
Forced : No
Скриншоты:



Время раздачи: С 15:00 до 19:00

Постеры

Соцсети

 

Статистика

Автор: master
Добавлен: 03 сен 2013, 22:16
Размер: 2.67 ГБ
Размер: 2 872 051 384 байт
Сидеров: 4
Личеров: 9
Скачали: 13
Здоровье: 44%
Раздающих: 31%
Скорость скачивания: 0 байт/сек
Скорость раздачи: 0 байт/сек
Последний сидер: 2 месяца 25 дней 7 часов 26 минут 59 секунд назад
Последний личер: 2 месяца 25 дней 7 часов 26 минут 59 секунд назад
Приватный: Нет (DHT включён)
Скачать торрент
Скачать торрент
[ Размер 14.14 КБ / Просмотров 7 ]

Поделиться



  • Похожие торренты
    Ответы
    Просмотры
    Последнее сообщение

Вернуться в Мир будущего