Сообщение

Kenya-West | Презентация на тему "Экология" [ISO] [2013]

Сообщение master » 03 сен 2013, 23:27

Kenya-West | Ecology [2013] [ISO]

Автор (издатель): Kenya-West
Название презентации: Ecology
Год: 2013
Жанр: Multimedia presentation
Язык: English, russian subtitles included
Системные требования:
• OS: Windows XP SP3, Vista, 7, 8;
• Microsoft Office Powerpoint 2010/2013 (для просмотра презентации);
• установленный K-Lite Codec Pack или другой универсальный плеер (необходим для просмотра фильма, содержащего mpeg4-кодек).
Формат: ISO

Описание:
Сделал презентацию. Тема: "Ecology" (version 1.0 Release).
Тема экологии сегодня актуальна как никогда - загрязнения окружающей среды всё увеличивается в геометрической прогрессии, проблема отходов становится всё важнее и острее, в наше время появились термины "Энвайронменталистика" и "Экотерроризм". Что это? Узнайте прямо сейчас!
Такая презентация пригодится, например, преподавателю, чтобы показать её свои студентам, или учителю, дабы его ученики узрели, как делать по-настоящему красивые и увлекательные презентации. Студенту и школьнику она сгодится не только как канон создания презентации, но и как дополнительный материал - в презентации содержится немало текстов по экологии. Несмотря на то, что язык презентации - английский, присутствуют русские субтитры, что не даст зрителю растеряться в моём ужасном чтении в понимании того, о чём идёт речь. Презентация запакована в образ для того, чтобы юзер не растерял презентацию по частям и чтобы по незнанию не скопировал один лишь .ppsx-файл.
Приятного просмотра!

ДЛЯ ПРОИГРЫВАНИЯ ПРЕЗЕНТАЦИЙ ЖЕЛАТЕЛЕН УСТАНОВЛЕННЫЙ MICROSOFT OFFICE 2013, ОДНАКО И НА 2010 ПОЙДЁТ.
• Автор: "Kenya-West©".
• Программы: "Microsoft Office Professional PowerPoint 2013" (презентация), "Pinnacle Studio 16 HD Ultimate Edition" (фильм), "Adobe Audition CS6" (озвучка);
• "Весит" 639 Мб. Облегчённая - N/A.

Это одна из немногих презентаций от
Kenya-West©, которые сделаны на другом языке! Не бойтесь, присутствуют русские субтитры, так что вы поймёте, о чём идёт речь! Трёхминутный видеоролик, включённый в презентацию, не успеет надоесть за столь короткое время его просмотра! А НАСТРАИВАЕМЫЙ минималистичный стиль и возможность СМЕНЫ МУЗЫКИ устраняет последние остатки старомодности с презентации!
В презентации можно посмотреть картинки из фильма, тексты и фильм. Такую презентацию вы можете записать на компакт- или DVD-диск и проигрывать с него.
Минималистичное интерактивное меню очень просто в освоении, и подходит для сенсорного управления "Microsoft Surface". Присутствует слайд, посвящённый Microsoft Office 2013. Это "Full HD"-презентация с разрешением 1080p (фильм - 1080p). В мультифункциональном главном слайде можно поменять звуковое сопровождение, через него просмотреть фильм, картинки, тексты, а также узнать побольше об авторе презентации. ЛУЧШАЯ ПРЕЗЕНТАЦИЯ ОТ KENYA-WEST© на данный момент.
Делал две недели по дисциплине "Английский язык".
Качество - как всегда наилучшее. Анимированность - как всегда полнейшая!
Тема оформления: МИНИМАЛИЗМ.
1. Смонтировать образ;
2. Запустить презентацию, нажав на файл "Ecology.ppsx" в смонтированном образе;
3. Дальше всё логично и понятно. Просмотрите фильм, щёлкнув по иконке телевизора и нажав "Watch the film"
Код:
Код: Выделить всё
General
Complete name                  : E:\Моя работа\University\Презентации\Английский язык\Ecology\Files\Movies\Ecology_1.mp4
Format                         : MPEG-4
Format profile                 : Base Media / Version 2
Codec ID                       : mp42
File size                      : 247 MiB
Duration                       : 4mn 11s
Overall bit rate mode          : Variable
Overall bit rate               : 8 227 Kbps
Encoded date                   : UTC 2013-02-14 21:59:43
Tagged date                    : UTC 2013-02-14 21:59:43

Video
ID                             : 1
Format                         : AVC
Format/Info                    : Advanced Video Codec
Format profile                 :
Format settings, CABAC         : Yes
Format settings, ReFrames      : 2 frames
Format settings, GOP           : N=1
Codec ID                       : avc1
Codec ID/Info                  : Advanced Video Coding
Duration                       : 4mn 11s
Bit rate mode                  : Variable
Bit rate                       : 8 030 Kbps
Maximum bit rate               : 18.7 Mbps
Width                          : 1 920 pixels
Height                         : 1 080 pixels
Display aspect ratio           : 16:9
Frame rate mode                : Variable
Frame rate                     : 29.970 fps
Minimum frame rate             : 29.940 fps
Maximum frame rate             : 29 970.000 fps
Color space                    : YUV
Chroma subsampling             : 4:2:0
Bit depth                      : 8 bits
Scan type                      : Progressive
Bits/(Pixel*Frame)             : 0.129
Stream size                    : 241 MiB (98%)
Language                       : English
Encoded date                   : UTC 2013-02-14 21:59:43
Tagged date                    : UTC 2013-02-14 21:59:43

Audio
ID                             : 2
Format                         : AAC
Format/Info                    : Advanced Audio Codec
Format profile                 : LC
Codec ID                       : 40
Duration                       : 4mn 11s
Bit rate mode                  : Variable
Bit rate                       : 192 Kbps
Maximum bit rate               : 196 Kbps
Channel(s)                     : 2 channels
Channel positions              : Front: L R
Sampling rate                  : 48.0 KHz
Compression mode               : Lossy
Stream size                    : 5.68 MiB (2%)
Language                       : English
Encoded date                   : UTC 2013-02-14 21:59:43
Tagged date                    : UTC 2013-02-14 21:59:43
О раздающем:
• Режим раздачи: днём;
• Скорость отдачи для внутренних абонентов: ~10 Mb/sec;
• Скорость отдачи для "внешки": ~80 Кбит/сек.;
• Раздающий - OptiNet RosTelecom PREMIUM in Yakutsk.
Скриншоты:



Время раздачи: 14:00 to 20:00 (UTC: +10:00)

Постеры

Соцсети

 

Статистика

Автор: master
Добавлен: 03 сен 2013, 23:27
Размер: 624.69 МБ
Размер: 655 032 320 байт
Сидеров: 0
Личеров: 2
Скачали: 0
Здоровье: ???%
Скорость скачивания: 0 байт/сек
Скорость раздачи: 0 байт/сек
Последний сидер: Нет
Последний личер: 3 месяца 1 день 5 часов 7 минут 49 секунд назад
Приватный: Нет (DHT включён)
Скачать торрент
Скачать торрент
[ Размер 12.92 КБ / Просмотров 1 ]

Поделиться



  • Похожие торренты
    Ответы
    Просмотры
    Последнее сообщение

Вернуться в Мир будущего