Видео


Сообщение

Видео [Михаил Юдин] Допечатная подготовка [2010, RUS]

Сообщение Tutorial » 08 сен 2013, 09:05

Допечатная подготовка

Год выпуска: 2010
Производитель: mikeudin.net
Автор: Михаил Юдин
Продолжительность: 2:25 ч
Тип раздаваемого материала: Видеоурок
Язык: Русский
Описание: Небольшой видеокурс по допечатной подготовке от Михаила Юдина.
М. Ю.: Два года назад, еще до того, как я начал публиковать свои первые уроки в сети, мне предложили прочитать небольшой курс по цветокоррекции для дизайнеров местного журнала. Теоретические занятия я проводил в аудитории, а практику решил заменить небольшим сборником видеоуроков. Курс прошел хорошо и мне предложили провести занятия в том же формате еще и по допечатной подготовке.
С тех пор прошло уже 2 года, а видеоуроки с того курса так и лежат мертвым грузом на жестком диске. Сегодня я решил их опубликовать — мало ли, может кому-нибудь да пригодится.
Содержание
1. Офсетная печать, как принцип репродуцирования изображений. Обзор процесса печати. Что необходимо знать дизайнеру при подготовке файла к печати на офсетной печатной машине. Растрирование, линеатура, разрешение печати.

2. Читаем технические требования типографии.

3. Форматы файлов, предоставляемых для печати в типографию.

PostScript или РDF? История возникновения этих форматов, особенности и версии.

4. Запись рdf и рs файлов из программ верстки и графических редакторов. Настройки.

5. Программа Adobe Acrobat Рго. Проверка документов перед передачей в печать, просмотр сепараций и оверпринт.

6. Подготовка к печати файла, использующего дополнительние краски. Краски Pantone.

7. Управление цветом. Цветовые профили.

8. Особенности обработки специальных эффектов различными графическими редакторами. Флеттенинг.
Файлы примеров: не предусмотрены
Формат видео: mp4
Видео (файлы 1-7): AVC 1280x720 16:9 15fps ~800Kbps
Аудио (файлы 1-7): AAC 44,1kHz 2ch 112-125Kbps
отчет MediaInfo по файлу 8:
Формат : MPEG-4
Профиль формата : Base Media
Идентификатор кодека : isom
Размер файла : 42,5 Мбайт
Продолжительность : 7 м. 6 с.
Режим общего битрейта : Переменный
Общий поток : 836 Кбит/сек
Дата кодирования : UTC 2012-03-02 18:19:49
Дата пометки : UTC 2012-03-02 18:19:49

Видео
Идентификатор : 1
Формат : AVC
Формат/Информация : Advanced Video Codec
Профиль формата : High@L3.1
Параметр CABAC формата : Да
Параметр ReFrames формата : 8 кадров
Идентификатор кодека : avc1
Идентификатор кодека/Информация : Advanced Video Coding
Продолжительность : 7 м. 6 с.
Битрейт : 743 Кбит/сек
Максимальный битрейт : 1549 Кбит/сек
Ширина : 624 пикселя
Высота : 480 пикселей
Соотношение сторон : 1,300
Режим частоты кадров : Постоянный
Частота кадров : 25,000 кадров/сек
Цветовое пространство : YUV
Субдискретизация насыщенности : 4:2:0
Битовая глубина : 8 бит
Тип развёртки : Прогрессивная
Бит/(Пиксели*Кадры) : 0.099
Размер потока : 37,8 Мбайт (89%)
Библиотека кодирования : x264 core 119 r2106 07efeb4

Аудио
Идентификатор : 2
Формат : AAC
Формат/Информация : Advanced Audio Codec
Профиль формата : LC
Идентификатор кодека : 40
Продолжительность : 7 м. 6 с.
Вид битрейта : Переменный
Битрейт : 89,9 Кбит/сек
Максимальный битрейт : 98,5 Кбит/сек
Каналы : 2 канала
Расположение каналов : Front: L R
Частота : 44,1 КГц
Метод сжатия : С потерями
Размер потока : 4,57 Мбайт (11%)
Дата кодирования : UTC 2012-03-02 18:19:51
Дата пометки : UTC 2012-03-02 18:19:51
Скриншоты




Постеры

Соцсети

 

Статистика

Автор: Tutorial
Добавлен: 08 сен 2013, 09:05
Размер: 983.14 МБ
Размер: 1 030 901 553 байт
Сидеров: 226
Личеров: 11
Скачали: 5
Здоровье: 100%
Раздающих: 100%
Скорость скачивания: 0 байт/сек
Скорость раздачи: 0 байт/сек
Последний сидер: 13 дней 2 часа 59 минут 6 секунд назад
Последний личер: 13 дней 2 часа 59 минут 6 секунд назад
Приватный: Нет (DHT включён)
Скачать торрент
Скачать торрент
[ Размер 20.54 КБ / Просмотров 26 ]

Поделиться



Вернуться в 2D-графика