BBC. Замерзшая планета / Frozen planet [1 диск из 3] (2011) Blu-Ray [1080i]

Телеканал, документальные фильмы
Торрент Сидеров Личеров Размер
torrent_114877.torrent
0 1 44.58 ГБ
Аватара пользователя
Tutorial
Сообщения: 9021
Зарегистрирован: 17 янв 2012, 23:53

BBC. Замерзшая планета / Frozen planet [1 диск из 3] (2011) Blu-Ray [1080i]

Сообщение Tutorial » 09 сен 2013, 05:27

BBC. Замерзшая планета / Frozen planet [1 диск из 3] (2011) Blu-Ray [1080i]

Русское название: BBC. Замерзшая планета
Оригинальное название: Frozen planet
Режиссер / Телекомпания: Аластер Фовергилл / Alastair Fothergill
Год выпуска: 2011
Жанр: Документальный
Текст читает: Дэвид Аттенборо

Спасибо:
krmgupi


Описание:
В этом путешествии мы отправимся на край земли. В места где экстремальные условия отрицают само существования жизни.
Однако жизнь здесь не просто существует, она процветает. Приспосабливаясь и изменяясь, приобретая удивительные формы, находя неожиданные способы существования, жизнь еще раз доказывает величие и грандиозность эволюции.



Продолжительность: 00:58:29 | 00:57:06 | 00:56:29

Перевод: Одноголосый закадровый, профессиональный AVO | В.Курдов |

Формат: BDMV
Видеокодек: MPEG-4 AVC Video / 25 fps / 16:9 / High Profile 4.1
Битрейт видео: ~31200 kb/s
Размер кадра: 1920х1080
Качество видео: Blu-Ray
Аудиокодек: DTS
Битрейт аудио: 1510 kb/s
Аудио1: English DTS Core: 5.1 / 48 kHz / 1509 kb/s / 16-bit
Аудио2: Russian DTS Core: 5.1 / 48 kHz / 1509 kb/s / 16-bit
Аудио2: English AC3 / 2.0 / 48 kHz / 448 kbps / DN -4dB
Язык субтитров: Русские, английские
Вид субтитров: Вшитые(отключаемые)
3 cерии из 7

Формат : BDAV
Формат/Информация : Blu-ray Video
Размер файла : 14,8 Гбайт
Продолжительность : 58 м.
Режим общего битрейта : Переменный
Общий поток : 36,3 Мбит/сек
Максимальный общий битрейт : 48,0 Мбит/сек

Видео
Идентификатор : 4113 (0x1011)
Идентификатор меню : 1 (0x1)
Формат : AVC
Формат/Информация : Advanced Video Codec
Профиль формата :
Параметр CABAC формата : Да
Параметр ReFrames формата : 4 кадра
Параметр GOP формата : M=1, N=24
Идентификатор кодека : 27
Продолжительность : 58 м.
Вид битрейта : Переменный
Битрейт : 31,2 Мбит/сек
Максимальный битрейт : 38,0 Мбит/сек
Ширина : 1920 пикселей
Высота : 1080 пикселей
Соотношение сторон : 16:9
Частота кадров : 25,000 кадров/сек
Цветовое пространство : YUV
Субдискретизация насыщенности : 4:2:0
Битовая глубина : 8 бит
Тип развёртки : MBAFF
Бит/(Пиксели*Кадры) : 0.602
Размер потока : 12,8 Гбайт (86%)

Аудио #1
Идентификатор : 4352 (0x1100)
Идентификатор меню : 1 (0x1)
Формат : DTS
Формат/Информация : Digital Theater Systems
Профиль формата : MA / Core
Режим смешивания : Stream extension
Идентификатор кодека : 134
Продолжительность : 58 м.
Вид битрейта : Переменный
Битрейт : 1561 Кбит/сек / 1510 Кбит/сек
Каналы : 6 каналов
Расположение каналов : Front: L C R, Side: L R, LFE
Частота : 48,0 КГц
Битовая глубина : 16 бит
Метод сжатия : Без потерь / Lossy

Аудио #2
Идентификатор : 4353 (0x1101)
Идентификатор меню : 1 (0x1)
Формат : DTS
Формат/Информация : Digital Theater Systems
Профиль формата : MA / Core
Режим смешивания : Stream extension
Идентификатор кодека : 134
Продолжительность : 58 м.
Вид битрейта : Переменный
Битрейт : 1624 Кбит/сек / 1510 Кбит/сек
Каналы : 6 каналов
Расположение каналов : Front: L C R, Side: L R, LFE
Частота : 48,0 КГц
Битовая глубина : 16 бит
Метод сжатия : Без потерь / Lossy

Аудио #3
Идентификатор : 4354 (0x1102)
Идентификатор меню : 1 (0x1)
Формат : AC-3
Формат/Информация : Audio Coding 3
Расширение режима : CM (complete main)
Идентификатор кодека : 129
Продолжительность : 58 м.
Вид битрейта : Постоянный
Битрейт : 448 Кбит/сек
Каналы : 2 канала
Расположение каналов : Front: L R
Частота : 48,0 КГц
Битовая глубина : 16 бит
Метод сжатия : С потерями
Размер потока : 188 Мбайт (1%)
1.На краях Земли / To the Ends of the Earth: В этой серии Дэвид Аттенборо путешествует на край земли, увлекая зрителя в эту удивительную поездку через полярные области нашей планеты, Севера и Юга. Арктика и Антарктика являются самыми большими и наименее известными дикими местами. Это - волшебные ледяные миры, населенные самыми причудливыми и выносливыми существами на земле. Путешествие берёт своё начало с Северного полюса, поскольку солнце возвращается сюда только после шести месяцев темноты. Мы следуем за парой ухаживающих белых медведей, которые удивительно нежны друг с другом. Следующая наша остановка - гигантский ледниковый покров Гренландии, где водопады погружаются в сердце льда и колоссальные по размеру айсберги падают в море. Мы увидим, как киты горбачи присоединяются к самому большому сбору морских птиц на земле в богатых водах Аляски. Дальше мы путешествуем в Тайгу, которая содержит одну треть всех деревьев на земле. Здесь, стая из 25 самых больших в мире волков нападают на бизона. В другом конце нашей планеты - Антарктика, где пингвины изо всех сил пытаются избежать голодного морского льва, и стая дельфинов создают гигантские волны, чтобы очистить полыньи от ледяных плавучих льдин.

2. Весна / Spring: В полярные регионы пришла весна и после почти 5 месячного отсутствия появляется солнце, тепло и жизнь возвращается в этот волшебный мир льда. Замерзшие реки начинают ломаться и сотни тысяч тонн льда устремляются вниз по течению, пополняя воды Северного Ледовитого океана. Приток пресной воды ускоряет процесс таяния льдов. В скором времени площадь льдов размером с Австралию вообще исчезнут из Арктики. В Антарктиду прибыли пингвины, чтобы строить свои гнёзда. Мы также понаблюдаем за охотой медведицы со своими детёнышами.

3. Лето / Summer: В полярных регионах наступило лето, и солнце никогда не заходит. Представьте себе один непрерывный день, длиной в несколько месяцев. Некоторые полярные животные столкнуться с рядом проблем, когда их окружающий ледяной мир исчезнет. Другие должны использовать это особенное время благоразумно, ибо летнее изобилие продлится недолго. Лето только начинается, и увеличивающаяся энергия солнца создает удивительные ландшафты. Обширные ледяные просторы, некогда стоявшие неподвижно, вернулись к жизни…
Скриншоты:




[bad=https:/nnm-club.ru/?q=BBC%3A%C7%E0%EC%E5%F0%E7%F8%E0%FF+%EF%EB%E0%ED%E5%F2%E0&w=title]
Все раздачи
[/url]
Время раздачи: 24/7 - круглосуточно
У вас нет необходимых прав для просмотра вложений в этом сообщении.