Что нам делать с Луной? / What shall we do with the MOON? (2005) TVRip

Дискавери Ченэл - телеканал основан на документальных передачах о науке, технологии и истории
Торрент Сидеров Личеров Размер
torrent_115173.torrent
0 0 867.26 МБ
Аватара пользователя
stegrian
Сообщения: 7861
Зарегистрирован: 19 авг 2012, 10:10

Что нам делать с Луной? / What shall we do with the MOON? (2005) TVRip

Сообщение stegrian » 12 сен 2013, 01:04

Что нам делать с Луной? / What shall we do with the MOON? (2005) TVRip

Русское название: Что нам делать с Луной?
Оригинальное название: What shall we do with the MOON?
Режиссер / Телекомпания: Discovery
Год выпуска: 2005
Жанр: Документальный

Описание:
Луна – ближайшее к Земле небесное тело, естественный спутник нашей планеты. Она обращается вокруг Земли на расстоянии около 400 000 км. и является самым доступным и удобным для высадки астронавтов небесным телом. Первые серьезные планы о разработке ее полезных ископаемых, а также заселения людьми, разрабатывались с первых же лет, как только человек вышел в космос. По планам СССР в начале этого века на спутнике уже должны были появиться первые комплексы, в которых долгое время, без поддержки с Земли, могли бы проживать люди, целью которых были, прежде всего, исследования в области геологии. Однако, огромные затраты, связанные с воплощением в жизнь даже части этого фантастического проекта, не позволили ему сойти с бумаги.
Вообще, стоит ли всерьез рассматривать Луну, как источник полезных ресурсов для Земли? Окупятся ли когда-нибудь затраты на ее исследование? Как можно применить ее на благо человечества?

Продолжительность: 00:46:51

Перевод: Одноголосый закадровый, профессиональный

Видеокодек: MPEG-2
Битрейт видео: ~2440 kbps avg, 0.311 bit/pixel
Размер кадра: 544x576 (4:3), 25 fps
Качество видео: TVRip
Аудиокодек: MP2
Битрейт аудио: 48 kHz, 1 ch, ~96,0 kbps avg
Код:

Код: Выделить всё

Видео
Идентификатор                    : 224 (0xE0)
Формат                           : MPEG Video
Версия формата                   : Version 2
Профиль формата                  : Main@Main
Параметр BVOP формата            : Да
Параметр матрицы формата         : По умолчанию
Продолжительность                : 46 м.
Вид битрейта                     : Переменный
Битрейт                          : 2440 Кбит/сек
Номинальный битрейт              : 15,0 Мбит/сек
Ширина                           : 544 пикс.
Высота                           : 576 пикс.
Соотношение сторон               : 4:3
Частота кадров                   : 25,000 кадр/сек
Цветовое пространство            : YUV
Подвыборка цветности             : 4:2:0
Битовая глубина                  : 8 бит
Тип развёртки                    : Чересстрочная
Порядок развёртки                : Верхнее поле первое
Метод сжатия                     : С потерями
Бит/(Пиксели*Кадры)              : 0.311
Размер потока                    : 818 Мбайт (94%)

Аудио
Идентификатор                    : 192 (0xC0)
Формат                           : MPEG Audio
Версия формата                   : Version 1
Профиль формата                  : Layer 2
Продолжительность                : 46 м.
Вид битрейта                     : Постоянный
Битрейт                          : 96,0 Кбит/сек
Канал(ы)                         : 1 канал
Частота                          : 48,0 КГц
Метод сжатия                     : С потерями
Размер потока                    : 32,2 Мбайт (4%)
Скриншоты:


Время раздачи: 24/7
У вас нет необходимых прав для просмотра вложений в этом сообщении.