Видео


Сообщение

Видео Фартук победы (МастерШеф Австралия) / MasterChef Australia (1-72 эпизоды из 72) [2009, кулинария, IPTVRip, RUS]

Сообщение Nik » 19 сен 2013, 22:28

Фартук победы (МастерШеф Австралия) / MasterChef Australia

Страна: Австралия
Тематика: кулинария
Тип раздаваемого материала: реалити-шоу
Продолжительность: от 25мин. до 1ч. 10мин на эпизод
Год выпуска: 2009

Язык: Русский
Перевод: Профессиональный (двухголосый)

Описание: Амбиции и сумасшедший драйв, скорости и температуры, металл и огонь, вызов себе и окружающим... Самое большое кулинарное состязание в истории!
Напряженный кулинарный триллер, в котором развернется борьба ради фартука... фартука Супер-Шеф-повара Австралии! После отборочного тура 50 лучших австралийских кулинаров-любителей разного возраста и разных профессий отправятся в Сидней, где пройдут испытания — от простого умения пользоваться ножом до запутанных и сложных кулинарных заданий. И только 20 выйдут в финал, где развернется настоящая битва за победу. Фартук и сто тысяч долларов достанутся только одному!

Доп. информация: Непережатый поток с IPTV трансляции.
Небольшой отсутствующий кусочек из первого эпизода выложен отдельно. В пятнадцатом эпизоде после 35-ой минуты картинка временами сыплется(были проблемы с трансляцией).
П.с. 15.05.2013 Пятнадцатый эпизод в нормальном качестве - http://yadi.sk/d/2wjwBYkm4qYDv

26.12.2012 Торрент-файл перезалит! Добавлена последняя неделя шоу(66-72 эпизоды).

Качество: IPTVRip
Формат: MPG
Видео кодек: MPEG2
Аудио кодек: MP2
Видео: MPEG2 Video, 544x576(576i) (4:3), 25fps, ~ 3 100 Kbps
Аудио: MPEG Audio, 48000Hz, stereo, 192kbps
Серия 01.mpg.MediaInfo
General
Complete name : E:\Серия 01.mpg
Format : MPEG-PS
File size : 1.02 GiB
Duration : 43mn 18s
Overall bit rate mode : Variable
Overall bit rate : 3 378 Kbps

Video
ID : 224 (0xE0)
Format : MPEG Video
Format version : Version 2
Format profile : Main@Main
Format settings, BVOP : Yes
Format settings, Matrix : Custom
Format settings, GOP : M=3, N=18
Duration : 43mn 18s
Bit rate mode : Variable
Bit rate : 3 119 Kbps
Maximum bit rate : 15.0 Mbps
Width : 544 pixels
Height : 576 pixels
Display aspect ratio : 4:3
Frame rate : 25.000 fps
Standard : PAL
Color space : YUV
Chroma subsampling : 4:2:0
Bit depth : 8 bits
Scan type : Interlaced
Scan order : Top Field First
Compression mode : Lossy
Bits/(Pixel*Frame) : 0.398
Stream size : 966 MiB (92%)
Matrix coefficients : BT.601

Audio
ID : 192 (0xC0)
Format : MPEG Audio
Format version : Version 1
Format profile : Layer 2
Duration : 43mn 18s
Bit rate mode : Constant
Bit rate : 192 Kbps
Channel(s) : 2 channels
Sampling rate : 48.0 KHz
Compression mode : Lossy
Stream size : 59.5 MiB (6%)
Скриншоты

Постеры

Соцсети

 

Статистика

Автор: Nik
Добавлен: 19 сен 2013, 22:28
Размер: 50.46 ГБ
Размер: 54 185 689 384 байт
Сидеров: 0
Личеров: 2
Скачали: 0
Здоровье: ???%
Скорость скачивания: 0 байт/сек
Скорость раздачи: 0 байт/сек
Последний сидер: Нет
Последний личер: 1 год 1 день 6 часов 39 минут 4 секунды назад
Приватный: Нет (DHT включён)
Кулинария Скачать торрент
Скачать торрент
[ Размер 256.73 КБ / Просмотров 4 ]

Поделиться



  • Похожие торренты
    Ответы
    Просмотры
    Последнее сообщение

Вернуться в Кулинария