Видео


Сообщение

Видео Меню для красоты / Gregory Landsman's Cooking for Beauty [2012, ТВ-шоу, кулинария, HDTVRip 720p, RUS] (Видеоурок)

Сообщение Nik » 19 сен 2013, 22:32

Меню для красоты / Gregory Landsman's Cooking for Beauty

Страна: США
Тематика: ТВ-шоу, кулинария
Тип раздаваемого материала: Видеоурок
Продолжительность: 14 ~ 00:26:50
Год выпуска: 2012

Язык: Русский
Перевод: Профессиональный (одноголосый)

Описание: Для красоты и здоровья кожи важен не только внешний уход, но и питание изнутри. С последней задачей вам поможет справиться передача «Меню для красоты».

Релиз:
Tarjaa

Содержание:
1. В нашем меню - салат из свеклы и капусты и цыпленок с тмином. Сыворотка против морщин вокруг глаз. Свинина с грушами и яблоками. Петрушка для выработки коллагена и мятный чай.
2. В нашем сегодняшнем меню: бараньи котлеты с мятой, стручковым горошком и салатом из редиски; рагу из курицы с чесноком и грибами; также маска против морщин, такая же эффективная, как в спа-салоне.
3. В нашем сегодняшнем меню - лосось и салат из кориандра и сельдерея. Блюдо из морепродуктов с аминокислотами омега-3. Увлажняющая маска. Вкуснейший десерт из инжира, чернослива и кураги.
4. В нашем сегодняшнем меню – суп из фенхеля. Блюдо с грибами, яйцом и креветками. Сыворотка против целлюлита. Десерт с антиоксидантами из черники и маскарпоне
5. В нашем меню – Фрикадельки с помидорами. Эффективный увлажняющий ночной крем . Фруктовый коктейль для подтяжки кожи, который можно пить и наносить на лицо.
6. В нашем меню – блюдо из тофу и баклажанов для выработки коллагена. Питательное рагу из тунца и лимской фасоли. Вкуснейший грушевый десерт и ночная сыворотка для сияния кожи.
7. В нашем меню для красоты: котлетки с тунцом, чесноком и йогуртовым соусом; болгарский перец с яйцом; и йогуртовый десерт из клубники, корицы и миндаля. Также средство для тела, которое может соперничать с дорогой профессиональной косметикой.
8. Сегодня в меню: баранина в соусе из сельдерея, тыквы и изюма; эффективная маска для лица, омолаживающая кожу и расслабляющая мышцы; лосось с карри и салатом из огурца и йогурта; и чай со специями, который не только утоляет
9. В нашем меню - салат из курицы с перцем, ночная сыворотка для кожи , фаршированный перец с тунцом и соусом наполи, тёплый десерт из бананов и вишни.
10. Сегодня в нашем меню - говядина с салатом из каперсов, помидоров и моцареллы. Рыба с кокосом и зеленой фасолью. Эффективное увлажняющее и укрепляющее средство, а также сок из яблока, шпината и петрушки
11. В нашем меню: фаршированные помидоры и сардины с базиликом; паста с рыбой и аспарагусом, содержащая аминокислоты; эффективное средство для увлажнения кожи и сокращения морщин; а также напиток красоты.
12. Сегодня в нашем меню - говядина с салатом из каперсов, помидоров и моцареллы. Рыба с кокосом и зеленой фасолью. Эффективное увлажняющее и укрепляющее средство, а также сок из яблока, шпината и петрушки
13.В нашем меню: чечевица со шпинатом и синим хеком; куриный суп с бок-чой и имбирем; десерт из риса с миндальным молоком и клубникой. Также сделаем эффективное средство для кожи лица из ингредиентов с вашей кухни.
14.Сегодня в нашем меню красоты - жареный рис. Содержащие антиоксиданты баранина с корицей и гуляш с черносливом. Канталупа, разглаживающая кожу. Йогурт с маракуей и мятой. Эффективная увлажняющая сыворотка с антиоксидантами.
Качество: HDTVRip
Формат: MKV
Видео кодек: H.264
Видео: MPEG4 Video (H264) 1280x720 25.00fps ~ 1900 Кбит/с
Аудио: AC3 48000Hz 2ch ~192Kbps

сэмпл видео
http://multi-up.com/878727
MediaInfo
General
Unique ID : 222831660259705292399682987706760188853 (0xA7A3D11397072D7BA5E55AB14BC253B5)
Complete name : Meny dlja krasoty\Meny dlja krasoty_V.01.mkv.HDTVRip_Tarjaa.mkv
Format : Matroska
Format version : Version 2
File size : 392 MiB
Duration : 26mn 12s
Overall bit rate : 2 094 Kbps
Encoded date : UTC 2013-06-15 03:15:22
Writing application : mkvmerge v4.9.1 ('Ich will') сборка от Aug 10 2011 09:31:20
Writing library : libebml v1.2.1 + libmatroska v1.2.0

Video
ID : 1
Format : AVC
Format/Info : Advanced Video Codec
Format profile : High@L4.0
Format settings, CABAC : Yes
Format settings, ReFrames : 8 frames
Codec ID : V_MPEG4/ISO/AVC
Duration : 26mn 12s
Bit rate : 1 900 Kbps
Width : 1 280 pixels
Height : 720 pixels
Display aspect ratio : 16:9
Frame rate mode : Constant
Frame rate : 25.000 fps
Color space : YUV
Chroma subsampling : 4:2:0
Bit depth : 8 bits
Scan type : Progressive
Bits/(Pixel*Frame) : 0.082
Stream size : 349 MiB (89%)
Writing library : x264 core 116 r2074 2641b9e
Encoding settings : cabac=1 / ref=8 / deblock=1:-1:-1 / analyse=0x3:0x133 / me=umh / subme=7 / psy=1 / psy_rd=1.00:0.10 / mixed_ref=1 / me_range=16 / chroma_me=1 / trellis=2 / 8x8dct=1 / cqm=0 / deadzone=21,11 / fast_pskip=0 / chroma_qp_offset=-3 / threads=4 / sliced_threads=0 / nr=0 / decimate=1 / interlaced=0 / bluray_compat=0 / constrained_intra=0 / bframes=3 / b_pyramid=2 / b_adapt=2 / b_bias=0 / direct=3 / weightb=1 / open_gop=0 / weightp=2 / keyint=250 / keyint_min=25 / scenecut=40 / intra_refresh=0 / rc_lookahead=50 / rc=2pass / mbtree=1 / bitrate=1900 / ratetol=1.0 / qcomp=0.60 / qpmin=0 / qpmax=69 / qpstep=4 / cplxblur=20.0 / qblur=0.5 / ip_ratio=1.40 / aq=1:1.00
Default : Yes
Forced : No

Audio
ID : 2
Format : AC-3
Format/Info : Audio Coding 3
Mode extension : CM (complete main)
Format settings, Endianness : Big
Codec ID : A_AC3
Duration : 26mn 12s
Bit rate mode : Constant
Bit rate : 192 Kbps
Channel(s) : 2 channels
Channel positions : Front: L R
Sampling rate : 48.0 KHz
Bit depth : 16 bits
Compression mode : Lossy
Stream size : 36.0 MiB (9%)
Default : Yes
Forced : No
Скриншоты

Постеры

Соцсети

 

Статистика

Автор: Nik
Добавлен: 19 сен 2013, 22:32
Размер: 5.35 ГБ
Размер: 5 747 567 259 байт
Сидеров: 0
Личеров: 2
Скачали: 0
Здоровье: ???%
Скорость скачивания: 0 байт/сек
Скорость раздачи: 0 байт/сек
Последний сидер: Нет
Последний личер: 1 год 3 месяца 22 дня 9 часов 12 минут 13 секунд назад
Приватный: Нет (DHT включён)
Кулинария Скачать торрент
Скачать торрент
[ Размер 28.29 КБ / Просмотров 1 ]

Поделиться



Вернуться в Кулинария