Дом у реки. Рождество / River Cottage Christmas Fayre [2010, Кулинария, RUS]

Рецепты салатов, закусок, мясных блюд, горячих напитков и сладких блюд
Торрент Сидеров Личеров Размер
torrent_119901.torrent
0 2 731.9 МБ
Аватара пользователя
Nik
Сообщения: 25932
Зарегистрирован: 05 ноя 2011, 22:02

Дом у реки. Рождество / River Cottage Christmas Fayre [2010, Кулинария, RUS]

Сообщение Nik » 19 сен 2013, 22:35

Дом у реки. Рождество / River Cottage Christmas Fayre

Страна: Англия
Тематика: Кулинария
Тип раздаваемого материала: Видеоурок
Продолжительность: 00:46:59
Год выпуска: 2010

Язык: Русский
Перевод: Профессиональный (двухголосый)

Описание: Рождество в "Доме у реки". Все что нужно для праздника: от лучших рецептов рождественских блюд до рецептов напитков от похмелья

Доп. информация: Непережатый поток с IPTV трансляции.
Сайт с описанием на английском: http://www.channel4.com/programmes/rive ... /episode-1
Рецепты на английском: http://scrapbook.channel4.com/programme ... /episode-1

Качество: IPTVRip
Формат: MPG
Видео кодек: MPEG2
Аудио кодек: MP2
Видео: MPEG2 Video, 544x576(576i) (4:3), 25fps, 1 942 Kbps
Аудио: MPEG Audio, 48000Hz, stereo, 192kbps
Дом у реки. Рождество.mpg.MediaInfo
General
Complete name : E:\Serial\Дом у реки. Рождество.mpg
Format : MPEG-PS
File size : 732 MiB
Duration : 46mn 59s
Overall bit rate mode : Variable
Overall bit rate : 2 177 Kbps
Writing library : encoded by TMPGEnc MPEG Editor 2.0 Version. 2.2.8.177

Video
ID : 224 (0xE0)
Format : MPEG Video
Format version : Version 2
Format profile : Main@Main
Format settings, BVOP : Yes
Format settings, Matrix : Custom
Duration : 46mn 59s
Bit rate mode : Variable
Bit rate : 1 942 Kbps
Maximum bit rate : 15.0 Mbps
Width : 544 pixels
Height : 576 pixels
Display aspect ratio : 4:3
Frame rate : 25.000 fps
Standard : PAL
Color space : YUV
Chroma subsampling : 4:2:0
Bit depth : 8 bits
Scan type : Interlaced
Scan order : Top Field First
Compression mode : Lossy
Bits/(Pixel*Frame) : 0.248
Stream size : 653 MiB (89%)
Matrix coefficients : BT.601

Audio
ID : 192 (0xC0)
Format : MPEG Audio
Format version : Version 1
Format profile : Layer 2
Duration : 46mn 59s
Bit rate mode : Constant
Bit rate : 192 Kbps
Channel(s) : 2 channels
Sampling rate : 48.0 KHz
Compression mode : Lossy
Stream size : 64.5 MiB (9%)
Скриншоты
У вас нет необходимых прав для просмотра вложений в этом сообщении.