Видео


Сообщение

Видео Сваты у плиты / Выпуск 1-7 из ?? [2012, Кулинарный сериал, DVB]

Сообщение Nik » 19 сен 2013, 22:38

Сваты у плиты
Год выпуска: 2012
Производство: Украина, телеканал ИНТЕР
Жанр: Кулинарный сериал
Продолжительность: ~25 минут серия
Режиссёр: - пока неизветно
В ролях: Татьяна Кравченко, Ольга Аросева, Олеся Железняк, София Стеценко, Николай Добрынин
Описание: Любимые герои народного сериала научат вкусно готовить простые блюда. И, конечно же, все это будет подано под соусом из шуток и хорошего юмора!

На воскресной кухне вы встретитесь практически со всеми героями самого любимого народного сериала "Сваты": бабушкой Валей, прабабушкой Людмилой Степановной, внучкой Женечкой, соседкой Ларисой и, конечно же, Митяем. Ведь приготовление еды – это настоящее творчество, где каждый может поделиться своим секретом и дополнить блюдо лично приготовленным соусом. Тогда и самая обычная утка с яблоками превращается в шедевр кулинарии.

А чтобы Ваш дом стал еще более хлебосольным, эксцентричный и неугомонный Митяй поделится рецептами напитков, которые лучше подавать к тому или иному блюдо. Ведь в приготовлении всевозможных коктейлей Митяю нет равных. Не говоря уже о том, что в умении правильно выбрать алкоголь для праздничного стола, веселый сосед семьи Будько даст фору даже самым образованным сомелье.

Релиз от & специально для

Раздача от группы:
SATRip - http://rutracker.org/forum/viewtopic.php?t=3996784
Качество: DVB
Формат: MPEG
Видео кодек: MPEG2
Аудио кодек: MPEG1
Видео: MPEG2 Video 704x576 (4:3) 25.00fps ~2900 Kbps
Аудио: MPEG Audio 48000Hz 2 channels 192 Кбит/сек
MI
Общее
Полное имя 01 выпуск_DVB by volk & UAOnline.mpg
Формат : MPEG-PS
Размер файла : 554 Мбайт
Продолжительность : 24 м.
Режим общего битрейта : Переменный
Общий поток : 3145 Кбит/сек

Видео
Идентификатор : 224 (0xE0)
Формат : MPEG Video
Версия формата : Version 2
Профиль формата : Main@Main
Параметр BVOP формата : Нет
Параметр матрицы формата : Выборочная
Параметр GOP формата : M=1, N=30
Продолжительность : 24 м.
Вид битрейта : Переменный
Битрейт : 2890 Кбит/сек
Максимальный битрейт : 15,0 Мбит/сек
Ширина : 704 пикселя
Высота : 576 пикселей
Соотношение сторон : 4:3
Частота кадров : 25,000 кадров/сек
Стандарт вещания : PAL
Цветовое пространство : YUV
Субдискретизация насыщенности : 4:2:0
Битовая глубина : 8 бит
Тип развёртки : Чересстрочная
Порядок развёртки : Верхнее поле первое
Метод сжатия : С потерями
Бит/(Пиксели*Кадры) : 0.285
Размер потока : 509 Мбайт (92%)

Аудио
Идентификатор : 192 (0xC0)
Формат : MPEG Audio
Версия формата : Version 1
Профиль формата : Layer 2
Продолжительность : 24 м.
Вид битрейта : Постоянный
Битрейт : 192 Кбит/сек
Каналы : 2 канала
Частота : 48,0 КГц
Метод сжатия : С потерями
Размер потока : 33,8 Мбайт (6%)
Скриншоты
Скринлисты
01 выпуск_DVB by volk & UAOnline

02 выпуск_DVB by volk & UAOnline

03 выпуск_DVB by volk & UAOnline

04 выпуск_DVB by volk & UAOnline

05 выпуск_DVB by volk & UAOnline

06 выпуск_DVB by volk & UAOnline

07 выпуск_DVB by volk & UAOnline
Внимание! Раздача ведётся путём добавления новых серий!!!
Внимание! Раздача ведётся путём добавления новых серий
Внимание! Раздача ведётся путём добавления новых серий; при каждом добавлении создаётся новый торрент.
Чтобы начать докачку новой серии, пользователям необходимо сделать следующее:
1) остановить скачивание
2) удалить старый торрент у себя из клиента (старые серии удалять не надо)
3) скачать новый торрент и запустить его у себя в клиенте вместо старого, при этом указать клиенту путь в старую папку куда и должно происходить скачивание новых серий.
Ваш клиент при этом должен произвести хеширование (проверку) старой папки (если не производит сам - помогите ему сделать это), и будет докачивать только те серии которых у вас ещё нет. Старые серии при этом не удаляются, а продолжают раздаваться!
Eсли вы уже удалили старые серии, то предотвратить повторную закачку старых серий можно, отжав галочку в соответствовавших местах при запуске нового торрента.
Добавлен 6 и 7 выпуск!!!
Обновите торрент файл!!!

Постеры

Соцсети

 

Статистика

Автор: Nik
Добавлен: 19 сен 2013, 22:38
Размер: 4.13 ГБ
Размер: 4 431 902 724 байт
Сидеров: 0
Личеров: 0
Скачали: 0
Здоровье: 0%
Скорость скачивания: 0 байт/сек
Скорость раздачи: 0 байт/сек
Последний сидер: Нет
Последний личер: Нет
Приватный: Нет (DHT включён)
Кулинария Скачать торрент
Скачать торрент
[ Размер 21.64 КБ / Просмотров 1 ]

Поделиться



Вернуться в Кулинария