Видео


Сообщение

Видео Адские гостиницы / Hotel Hell [2012, IPTVRip, RUS]

Сообщение Nik » 20 сен 2013, 00:10

Адские гостиницы / Hotel Hell

Страна: США
Тип раздаваемого материала: реалити-шоу
Продолжительность: ~ 40 мин на эпизод
Год выпуска: 2012

Язык: Русский
Перевод: Профессиональный (двухголосый)

Описание: Герой новой программы TLC "Адские гостиницы" - знаменитый шеф-повар Гордон Рамзи, решивший вернуть к жизни ужасные отели, отвратительные гостиницы и плохие пансионы. Более 10 лет Гордон возглавлял рестораны лучших отелей мира, поэтому он не понаслышке знает, как важно превзойти все ожидания клиентов. Прежде чем начать работать с владельцами и сотрудниками гостиниц, пришедших в упадок, Рамзи лично изучает все недостатки этих злополучных заведений - от грязи в номерах до плесени в ванных, от некомпетентности персонала до непрофессионального обслуживания клиентов. Гордон стремится сделать их конкурентоспособными в жесткой борьбе с другими предприятиями отельного бизнеса. Он буквально переворачивает все вверх дном, нагнетая напряжение, ссорясь с владельцами гостиниц и заставляя персонал работать на полную катушку. Владельцам, дорожащим репутацией своих отелей, придется понять одно - не достигнув высоких стандартов, предложенных Гордоном, они никогда не вырвутся из ранга "Адских гостиниц"!

Доп. информация: Непережатый поток с IPTV трансляции. Полный первый сезон(шесть эпизодов из шести).

Качество: IPTVRip
Формат: MPG
Видео кодек: MPEG2
Аудио кодек: MP2
Видео: MPEG2 Video, 704x576 (4:3), 25fps, ~ 3 000 Kbps
Аудио: MPEG Audio, 48000Hz, stereo, 128kbps
Эпизод 01 Juniper Hill Inn, Part One.mpg.MediaInfo
General
Complete name : E:\Serial\Адские гостиницы\Эпизод 01 Juniper Hill Inn, Part One.mpg
Format : MPEG-PS
File size : 945 MiB
Duration : 40mn 39s
Overall bit rate mode : Variable
Overall bit rate : 3 247 Kbps

Video
ID : 224 (0xE0)
Format : MPEG Video
Format version : Version 2
Format profile : Main@Main
Format settings, BVOP : Yes
Format settings, Matrix : Custom
Duration : 40mn 39s
Bit rate mode : Variable
Bit rate : 3 055 Kbps
Maximum bit rate : 4 000 Kbps
Width : 704 pixels
Height : 576 pixels
Display aspect ratio : 4:3
Frame rate : 25.000 fps
Standard : PAL
Color space : YUV
Chroma subsampling : 4:2:0
Bit depth : 8 bits
Scan type : Interlaced
Scan order : Top Field First
Compression mode : Lossy
Bits/(Pixel*Frame) : 0.301
Stream size : 888 MiB (94%)
Matrix coefficients : BT.601

Audio
ID : 192 (0xC0)
Format : MPEG Audio
Format version : Version 1
Format profile : Layer 2
Mode : Joint stereo
Duration : 40mn 39s
Bit rate mode : Constant
Bit rate : 128 Kbps
Channel(s) : 2 channels
Sampling rate : 48.0 KHz
Compression mode : Lossy
Stream size : 37.2 MiB (4%)
Скриншоты

Постеры

Соцсети

 

Статистика

Автор: Nik
Добавлен: 20 сен 2013, 00:10
Размер: 5.3 ГБ
Размер: 5 686 351 896 байт
Сидеров: 0
Личеров: 0
Скачали: 0
Здоровье: 0%
Скорость скачивания: 0 байт/сек
Скорость раздачи: 0 байт/сек
Последний сидер: Нет
Последний личер: Нет
Приватный: Нет (DHT включён)
Кулинария Скачать торрент
Скачать торрент
[ Размер 106.81 КБ / Просмотров 0 ]

Поделиться



  • Похожие торренты
    Ответы
    Просмотры
    Последнее сообщение

Вернуться в Кулинария