Видео


Сообщение

Видео ИСКУССТВО БАРМЕНА: Приготовление коктейлей. (Неизвестен) [2008 г., Документальный, DVDRip]

Сообщение Nik » 20 сен 2013, 00:29

ИСКУССТВО БАРМЕНА: Приготовление коктейлей.

Год выпуска: 2008
Страна: Россия
Жанр: Документальный
Продолжительность: 43 мин
Перевод: Не требуется
Русские субтитры: нет

Режиссер: Неизвестен

В ролях: Сергей Грибков

Описание: Приготовление коктейлей - это искусство. Хотите порадовать себя и своих друзей изысканными напитками? Этот фильм станет для вас весьма полезным руководством, в нем описано приготовление коктейлей, пропорции смешивания, приводятся описание коктейльных бокалов. Приготовление большенства коктейлей будет по силам даже новичку.
Информация Файла
C:\Documents and Settings\Desktop\Movies\Iskustvo barmena.avi
General
Complete name : C:\Documents and Settings\Desktop\Movies\Iskustvo barmena.avi
Format : AVI
Format/Info : Audio Video Interleave
File size : 348 MiB
Duration : 43mn 4s
Overall bit rate : 1130 Kbps
Writing library : VirtualDub build 15654/release
Video
Format : MPEG-4 Visual
Codec ID : DIV3
Codec ID/Hint : DivX 3 Low
Duration : 43mn 4s
Bit rate : 1024 Kbps
Width : 720 pixels
Height : 576 pixels
Display aspect ratio : 5/4
Frame rate : 25.000 fps
Standard : PAL
Resolution : 24 bits
Bits/(Pixel*Frame) : 0.099
Stream size : 316 MiB (91%)
Audio
Format : MPEG Audio
Format version : Version 1
Format profile : Layer 3
Codec ID : 55
Codec ID/Hint : MP3
Duration : 43mn 4s
Bit rate mode : Constant
Bit rate : 96.0 Kbps
Channel(s) : 2 channels
Sampling rate : 44.1 KHz
Resolution : 16 bits
Stream size : 29.5 MiB (8%)
Alignment : Split accross interleaves
Interleave, duration : 40 ms (1.00 video frame)
Interleave, preload duration : 464 ms
Качество: DVDRip
Формат: AVI
Видео кодек: DivX
Аудио кодек: MP3
Видео: DivX 3 720x576 25.00fps 1024Kbps
Аудио: MPEG Audio Layer 3 44100Hz stereo 95Kbps
Скриншоты
[bad=http://www. СПАМ

Постеры

Соцсети

 

Статистика

Автор: Nik
Добавлен: 20 сен 2013, 00:29
Размер: 348.07 МБ
Размер: 364 978 176 байт
Сидеров: 0
Личеров: 0
Скачали: 0
Здоровье: 0%
Скорость скачивания: 0 байт/сек
Скорость раздачи: 0 байт/сек
Последний сидер: 4 года 3 месяца 1 день 6 часов 1 минуту назад
Последний личер: 4 года 3 месяца 12 дней 12 часов 46 минут 13 секунд назад
Приватный: Нет (DHT включён)
Кулинария Скачать торрент
Скачать торрент
[ Размер 14.08 КБ / Просмотров 2 ]

Поделиться



Вернуться в Кулинария