Видео


Сообщение

Видео Съешьте это немедленно.Выпуск 1 [2011 г., Кулинарное шоу, DVB]

Сообщение Nik » 20 сен 2013, 00:33

Съешьте это немедленно.Выпуск 1

Год выпуска: 2011
Страна: Россия
Жанр: Кулинарное шоу
Шеф-повара: Константин Ивлев, Юрий Рожков
Ведущие: Наталья Стефаненко и Таша Строгая
Продолжительность: 00:32:06

Описание: Муж жалуется на пересушенный кусок стейка или не жующийся бефстроганов? В таком случае программа «Съешьте это немедленно!» специально для тебя!

Новая программа СТС — «Съешьте это немедленно!» с любимыми ведущими Наташей Стефаненко и Ташей Строгой, научит готовить так, что у тебя не останется конкурентов в кулинарном мастерстве.
Ведущим на помощь приходят шеф-повара Константин Ивлев и Юрий Рожков, которые не только научат тебя многим хитростям кулинарного дела, но и помогут выбирать «правильные», здоровые продукты для блюд.
По просьбе мужа, которому не нравится, как готовит жена, Таша и Наташа едут к супругам домой, и смотрят, как обстоят дела на самом деле.
Для хозяйки приезд Таши и Наташи домой — большой сюрприз. Пока Таша проверяет холодильник и кастрюльки на кухне, в гостиной Наташа беседует с мужем. Ее цель — выяснить, что ему не нравится в меню жены.
Галантные джентльмены Константин Ивлев и Юрий Рожков за двадцать минут решат все проблемы нерадивой хозяюшки. Фантастически вкусные блюда скорого приготовления не оставят без внимания мужа.

«Мы — это то, что мы едим. А едим мы то, что мы сами готовим. Поэтому давайте готовить правильно!» — девиз программы.

Релиз

Качество
: DVB
Формат: MPEG
Видео кодек: MPEG2
Аудио кодек: MPEG1 Layer 2
Видео: MPEG2 Video 720x576 (4:3) 25.00fps 5 817 Kbps
Аудио: MPEG Audio 48000Hz 2 channels 256 Кбит/сек
MI
Complete name : F:\TORENTRAZDACHI\Съешьте это немедленно\Съешьте это немедленно.Выпуск 1_DVB_by_CLIPMAN.mpg
Format : MPEG-PS
File size : 1.39 GiB
Duration : 32mn 6s
Overall bit rate : 6 196 Kbps

Video
ID : 224 (0xE0)
Format : MPEG Video
Format version : Version 2
Format profile : Main@Main
Format settings, BVOP : Yes
Format settings, Matrix : Default
Duration : 32mn 6s
Bit rate mode : Variable
Bit rate : 5 817 Kbps
Nominal bit rate : 15.0 Mbps
Width : 720 pixels
Height : 576 pixels
Display aspect ratio : 4:3
Frame rate : 25.000 fps
Standard : PAL
Color space : YUV
Chroma subsampling : 4:2:0
Bit depth : 8 bits
Scan type : Interlaced
Scan order : Top Field First
Bits/(Pixel*Frame) : 0.561
Stream size : 1.30 GiB (94%)

Audio
ID : 192 (0xC0)
Format : MPEG Audio
Format version : Version 1
Format profile : Layer 2
Mode : Dual mono
Duration : 32mn 6s
Bit rate mode : Constant
Bit rate : 256 Kbps
Channel(s) : 2 channels
Sampling rate : 48.0 KHz
Stream size : 58.8 MiB (4%)
Скринлист
Скриншоты

Постеры

Соцсети

 

Статистика

Автор: Nik
Добавлен: 20 сен 2013, 00:33
Размер: 1.39 ГБ
Размер: 1 491 922 948 байт
Сидеров: 0
Личеров: 0
Скачали: 0
Здоровье: 0%
Скорость скачивания: 0 байт/сек
Скорость раздачи: 0 байт/сек
Последний сидер: Нет
Последний личер: Нет
Приватный: Нет (DHT включён)
Кулинария Скачать торрент
Скачать торрент
[ Размер 28.34 КБ / Просмотров 0 ]

Поделиться



Вернуться в Кулинария